2 сезон

iTunes

1 сезон

1

iTunes

iTunes

iTunes

1 сезон

RePack

30

ИГРА 18+

pack

ВАЖНО

!!Акция!!

Alien_RageХит недели

RePack

MK11
pack

Забери бонус

RePack

jed

!!Акция!!

Alien_Rage

RePack

fifa19

RePack

Assassins Creed: Odyssey

RePack

NEED FOR SPEED™ PAYBACK

4 сезон

9 сезон

Бесстыжие 9 сезон

Все сериалы

все сериалы на PB.wtf

RePack

FAR CRY 5
  

Погоня за ветром / Jag etter vind (Руне Денстад Лангло / Rune Denstad Langlo) [2013, Норвегия, драма, DVDRip,Любительский (одноголосый)[datynet] pb.wtf

Погоня за ветром через торрент pb.wtf

Размер: 1.46 GB | Добавлен: 6 лет 7 мес. назад | Торрент скачан:29 раз
Скачать  

15-03-2014 14:55 Погоня за ветром Скачать торрент  

Угнаться за ветром / Jag etter vind
Год выпуска: 2013
Страна: Норвегия
Жанр: драма
Продолжительность: 01:29:41
Перевод: Любительский (одноголосый)[datynet]
Субтитры: Нет
Режиссер: Руне Денстад Лангло / Rune Denstad Langlo
В ролях: Мари Блокхус (Anna), Андерс Баасмо Кристиансен (Lundgren), Фредерик Мельдаль Нёргор (Mathias), Тобиас Зантелман (Håvard), Свен-Бертиль Таубе (Johannes)


Описание:
Когда бабушка умирает, Анна должна вернуться к тому, что осталось от небольшой семьи, спустя 10 лет, после того как она ушла. Там же Анна столкнулась с тем, от чего она тогда бежала.


kinopoisk.ru: 6.417 (51)
imdb.com: 6.50 (196)
Качество: DVDRip
Формат: AVI
Видео кодек: XviD
Аудио кодек: MP3
Видео: XviD, 720x304 (2.35:1), 2121 kbps, 24 fps, 0,404 bpp
Аудио: MP3 / 2.0 / 44 kHz / 192 kbps /
Общее
Полное имя : E:закачкиJag.Etter.Vind.2013.L1.DVDRip.1400Mb.avi
Формат : AVI
Формат/Информация : Audio Video Interleave
Размер файла : 1,46 Гбайт
Продолжительность : 1 ч. 29 м.
Общий поток : 2323 Кбит/сек
Программа кодирования : VirtualDubMod 1.5.10.2 (build 2540/release)
Библиотека кодирования : VirtualDubMod build 2540/release

Видео
Идентификатор : 0
Формат : MPEG-4 Visual
Профиль формата : Advanced Simple@L5
Параметр BVOP формата : 2
Параметр QPel формата : Нет
Параметр GMC формата : Без точки перехода
Параметр матрицы формата : Default (H.263)
Идентификатор кодека : XVID
Идентификатор кодека/Подсказка : XviD
Продолжительность : 1 ч. 29 м.
Битрейт : 2122 Кбит/сек
Ширина : 720 пикселей
Высота : 304 пикселя
Соотношение сторон : 2,35:1
Частота кадров : 24,000 кадра/сек
Цветовое пространство : YUV
Субдискретизация насыщенности : 4:2:0
Битовая глубина : 8 бит
Тип развёртки : Прогрессивная
Метод сжатия : С потерями
Бит/(Пиксели*Кадры) : 0.404
Размер потока : 1,33 Гбайт (91%)
Библиотека кодирования : XviD 1.2.1 (UTC 2008-12-04)

Аудио
Идентификатор : 1
Формат : MPEG Audio
Версия формата : Version 1
Профиль формата : Layer 3
Идентификатор кодека : 55
Идентификатор кодека/Подсказка : MP3
Продолжительность : 1 ч. 29 м.
Вид битрейта : Постоянный
Битрейт : 192 Кбит/сек
Каналы : 2 канала
Частота : 44,1 КГц
Метод сжатия : С потерями
Размер потока : 123 Мбайт (8%)
Выравнивание : Разделение по промежуткам
Продолжительность промежутка : 42 мс. (1,00 видеокадр)
Время предзагрузки промежутка : 500 мс.
pb.wtf



Скачать Погоня за ветром через торрент http://i57.fastpic.ru/big/2013/0929/6a/b66fed8f594d68ed55eb6f0c3192c36a.jpg Скачать фильм Погоня за ветром через торрент бесплантно в хорошем качестве Описание: Когда бабушка умирает, Анна должна вернуться к тому, что осталось от небольшой семьи, спустя 10 лет, после того как она ушла. Там ... 10 10 2
Торрент: Зарегистрирован [2014-03-15 14:55] · скачан: 29 раз
Статус: T временная
Размер: 1.46 GB
Как cкачать? Как скачать Погоня за ветром через торрент | qTorrent

28-11-2019 20:33  

Отключить всю рекламу на сайте

15-03-2014 15:27 Погоня за ветром Скачать торрент  

KEYS
http://pb.wtf/topic/116181/ используйте этот вариант программы, там шаблон сделан под наш сайт http://sendfile.su/953201
У вас с кодами проблема, еле нашел не закрытый код.pb.wtf



    Дорогой пользователь! Огромная просьба, поблагодарите релизера, оцените раздачу и оставьте свои комментарий, если Вы скачали Погоня за ветром через торрент бесплатно! Внесите свою лепту в развитие PiratBit!
    Комментировать посты могут только пользователи прошедшие не сложную регистрацию
    Показать сообщения:    

    Погоня за ветром через торрент
    Скачать бесплатно Погоня за ветром
    Погоня за ветром скачать торрент
    Погоня за ветром смотреть онлайн
    Cкачать фильм Погоня за ветром бесплатно
    Погоня за ветром скачать торрент в хорошем качестве
    Погоня за ветром смотреть онлайн бесплатно в хорошем качестве


    Вы не можете начинать темы
    Вы не можете отвечать на сообщения
    Вы не можете редактировать свои сообщения
    Вы не можете удалять свои сообщения
    Вы не можете голосовать в опросах
    Вы не можете прикреплять файлы к сообщениям
    Вы можете скачивать файлы