>

7.4

iTunes

7.4

2 сезон

9.4

1 сезон

1

7.4

2 сезон

7.2

iTunes

6.0

MVO

13

6.1

iTunes

8.3

Пиратка

30

ULTIMATE

pack

9.9

Лицензия

ВАЖНО

ИГРА 18+

pack

7.3

RePack

MK11

7.7

RePack

jed

7.8

RePack

fifa19

8.5

RePack

RDR2

RePack

NEED FOR SPEED™ PAYBACK

1 сезон

9 сезон

Бесстыжие 9 сезон

Все сериалы

все сериалы на PB.wtf

RePack

FAR CRY 5

Anonymous, доброе утро, мы катастрофически не успеваем собрать деньги на оплату серверов, помогите нам пожалуйста 5,10,15р., для нас важна любая помощь . В качестве благодарности мы отключим Вам всю рекламу на сайте (укажите свой ник в строку Ваше имя)!

×
  
Magnet ссылка

Город порока / Broken City (Алленс Хьюз) [2013 г., Триллер, драма, криминал, BDRip]AVO pb.wtf

Город порока через торрент pb.wtf

Размер: 2.18 GB | Добавлен: 7 лет 10 мес. назад | Торрент скачан:248 раз
Смотреть онлайн Город порока | Скачать    Ребята, помогите собрать деньги на оплату серверов!!!

15-03-2014 15:18 Город порока Скачать торрент  


Город порока / Broken City

«Proof Can Be a Powerful Weapon»

  • Год выпуска: 2012
  • Страна: США
  • Жанр:триллер, драма, криминал
  • Продолжительность: 01:48:41
  • Перевод: Авторский одноголосый Ю.Немахов + Оригинальная звуковая дорожка + Одноголосый закадровый Е.Гаевский (отдельно)

  • Субтитры:Английские (Full, SDH) (внешние srt*) Скачать отдельно⇒
  • Режиссер: Аллен Хьюз / Allen Hughes
  • В ролях: Марк Уолберг (Billy Taggart), Рассел Кроу (Mayor Hostetler), Кэтрин Зета-Джонс (Cathleen Hostetler), Барри Пеппер (Jack Valliant), Кайл Чандлер (Paul Andrews), Натали Мартинез (Natalie Barrow), Джеффри Райт (Carl Fairbanks), Алона Тал (Katy Bradshaw), Майкл Бич (Tony Jansen), Джеймс Рэнсон (Todd Lancaster), Гриффин Данн (Sam Lancaster), Одесса Сайкес (Secretary - Hostetler)
    • Описание:
      История бывшего полицейского Билли Таггерта. 7 лет назад он стрелял в 16-летнего подростка, за что был уволен из полиции. Теперь Таггерт работает частным детективом, которого нанимает мэр, чтобы тот разузнал, не изменяет ли ему жена. Однако расследование адюльтера супруги мэра выливается в настоящий скандал. Человек, с которым жена мэра изменяла мужу, убит, а на поверхность всплывает нехорошая история с недвижимостью.

    Бюджет:$35 000 000 / Мировая премьера:18 января 2013

    Релиз группы: Автор рипа: kingsize87
    • Качество:HDRip
    • Формат:AVI
    • Видео кодек: XviD
    • Аудио кодек:AC3
    • Видео: XviD, 720x304 (2.35:1), 1963 kbps, 23,976 fps, 0,374 bpp
    • Аудио №1: AC3 / 5.1 / 48 kHz / 448 kbps / 16 bit-Авторский одноголосый Ю.Немахов
    • Аудио №2: AC3 / 5.1 / 48 kHz / 448 kbps / 16 bit-Оригинальная звуковая дорожка
    • Аудио #3: 48 kHz, AC3 Dolby Digital, 3/2 (L,C,R,l,r) + LFE ch, ~448.00 kbps avg Одноголосый закадровый Е.Гаевский Скачать отдельно⇒


    Код:

    General
    Complete name                            : D:ТорентыGorod.poroka.2013.DUAL.BDRip.XviD.AC3.-HQCLUB.avi
    Format                                   : AVI
    Format/Info                              : Audio Video Interleave
    Format profile                           : OpenDML
    File size                                : 2.18 GiB
    Duration                                 : 1h 48mn
    Overall bit rate                         : 2 877 Kbps
    Movie name                               : Город порока / Broken City (2013) BDRip
    Director                                 : kingsize87
    Writing application                      : VirtualDubMod 1.5.10.2 (build 2540/release)
    Copyright                                : HQCLUB
    Comment                                  : 12.03.2014

    Video
    ID                                       : 0
    Format                                   : MPEG-4 Visual
    Format profile                           : Advanced Simple@L5
    Format settings, BVOP                    : 1
    Format settings, QPel                    : No
    Format settings, GMC                     : No warppoints
    Format settings, Matrix                  : Custom
    Codec ID                                 : XVID
    Codec ID/Hint                            : XviD
    Duration                                 : 1h 48mn
    Bit rate                                 : 1 963 Kbps
    Width                                    : 720 pixels
    Height                                   : 304 pixels
    Display aspect ratio                     : 2.35:1
    Frame rate                               : 23.976 fps
    Color space                              : YUV
    Chroma subsampling                       : 4:2:0
    Bit depth                                : 8 bits
    Scan type                                : Progressive
    Compression mode                         : Lossy
    Bits/(Pixel*Frame)                       : 0.374
    Stream size                              : 1.49 GiB (68%)
    Writing library                          : XviD 65

    Audio #1
    ID                                       : 1
    Format                                   : AC-3
    Format/Info                              : Audio Coding 3
    Mode extension                           : CM (complete main)
    Codec ID                                 : 2000
    Duration                                 : 1h 48mn
    Bit rate mode                            : Constant
    Bit rate                                 : 448 Kbps
    Channel(s)                               : 6 channels
    Channel positions                        : Front: L C R, Side: L R, LFE
    Sampling rate                            : 48.0 KHz
    Bit depth                                : 16 bits
    Compression mode                         : Lossy
    Stream size                              : 348 MiB (16%)
    Alignment                                : Split accross interleaves
    Interleave, duration                     : 42 ms (1.00 video frame)
    Interleave, preload duration             : 500 ms

    Audio #2
    ID                                       : 2
    Format                                   : AC-3
    Format/Info                              : Audio Coding 3
    Mode extension                           : CM (complete main)
    Codec ID                                 : 2000
    Duration                                 : 1h 48mn
    Bit rate mode                            : Constant
    Bit rate                                 : 448 Kbps
    Channel(s)                               : 6 channels
    Channel positions                        : Front: L C R, Side: L R, LFE
    Sampling rate                            : 48.0 KHz
    Bit depth                                : 16 bits
    Compression mode                         : Lossy
    Stream size                              : 348 MiB (16%)
    Alignment                                : Split accross interleaves
    Interleave, duration                     : 42 ms (1.00 video frame)
    Interleave, preload duration             : 500 ms

    Скриншоты:

    Трейлеры к фильмам [2014]
    © Оформление by Raven pb.wtf



  • Скачать Город порока через торрент https://pic1.kartinco.top/images/61/ordi9.jpg Скачать, смотреть онлайн Город порока бесплантно в хорошем качестве Описание:История бывшего полицейского Билли Таггерта. 7 лет назад он стрелял в 16-летнего подростка, за что был уволен из полиции. Теперь ... 10 10 11
    Info! Золотая раздача, скачанное не засчитывается.
    Торрент: Зарегистрирован [2014-03-15 15:18] · скачан: 248 раз
    Статус: √ проверено
    Размер: 2.18 GB
    Как cкачать? Как скачать Город порока через торрент | UTorrent

    % Раздел Тема Автор DL S | L
    Фильмы [HD 720p, 1080p] (Хороший звук DUB, MVO) [ 5.05 GB ] Город порока / Broken City [2013 BDRip 720p от _denis_100 / NNNB] MVO + 2xAVO + Original + Sub _denis_100 Скачать
    1 | 0

    28-11-2019 20:33  

    Отключить всю рекламу на сайте

      Дорогой пользователь! Огромная просьба, поблагодарите релизера, оцените раздачу и оставьте свои комментарий, если Вы скачали Город порока через торрент бесплатно!
      Комментировать посты могут только пользователи прошедшие не сложную регистрацию
      Показать сообщения:    

      Город порока через торрент
      Скачать бесплатно Город порока
      Город порока скачать торрент
      Город порока смотреть онлайн
      Cкачать фильм Город порока бесплатно
      Город порока скачать торрент в хорошем качестве
      Город порока смотреть онлайн бесплатно в хорошем качестве


      Вы не можете начинать темы
      Вы не можете отвечать на сообщения
      Вы не можете редактировать свои сообщения
      Вы не можете удалять свои сообщения
      Вы не можете голосовать в опросах
      Вы не можете прикреплять файлы к сообщениям
      Вы можете скачивать файлы