2 сезон

iTunes

MVO

1

2 сезон

iTunes

iTunes

1 сезон

RePack

30

Ultimate

ВАЖНО

ИГРА 18+

pack

RePack

MK11
pack

Легкие деньги

RePack

jed

RePack

fifa19

RePack

RDR2

RePack

NEED FOR SPEED™ PAYBACK

4 сезон

9 сезон

Бесстыжие 9 сезон

Все сериалы

все сериалы на PB.wtf

RePack

FAR CRY 5

Anonymous, добрый день, мы не успеваем собрать деньги на оплату серверов за декабрь и январь, помогите нам пожалуйста в это трудное время. В качестве благодарности мы отключим Вам всю рекламу на сайте (укажите свой ник в строку Ваше имя)!

×
  
Magnet ссылка

Несносный дед / Jackass Presents: Bad Grandpa (Джефф Треймейн / Jeff Tremaine) [2013, США, комедия, BDRip,Профессиональный [Дубляж - Лицензия] Театральная версия / Theatrical Cut pb.wtf

Несносный дед через торрент pb.wtf

Размер: 1.45 GB | Добавлен: 6 лет 10 мес. назад | Торрент скачан:1176 раз
Скачать  

15-03-2014 15:43 Несносный дед Скачать торрент  


Несносный дед / Jackass Presents: Bad Grandpa


  • Год выпуска: 2013
  • Страна: США
  • Жанр:комедия

  • Продолжительность: 01:31:54
  • Перевод: Профессиональный [Дубляж - Лицензия]

  • Субтитры:русские, английские, украинские Скачать отдельно⇒
  • Режиссер: Джефф Треймейн / Jeff Tremaine
  • В ролях: Джонни Ноксвил (Irving Zisman), Джексон Николл (Billy), Грег Харрис (Chuck), Джорджина Кэйтс (Kimmie), Камбер Хейлик (Doctor), Джилл Килл (Pageant Reporter), Мэдисон Дэвис (Juggalo Girl), Джордж Фонан (Juggalo Guy), Грэси Мерседес (ведущая), Мэрилинн Эллейн (Receptionist), Джек Полик (Funeral Worker), Спайк Джонс (Gloria)
    • Описание:
      86-летний старикан по имени Ирвинг Зисман путешествует по Америке с необычным компаньоном - восьмилетним «внуком» Билли.
      По дороге заводной дедушка знакомит впечатлительного Билли с людьми, местами и ситуациями, которые вряд ли укладываются в рамки привычных представлений о воспитании. Парочка столкнется со стриптизерами, разъяренными участниками помпезного детского конкурса красоты и их не менее злыми мамашами, скорбящими посетителями панихиды, завсегдатаями бара для байкеров и другими ничего не подозревающими гражданами США.

    Бюджет:$15 000 000 / Мировая премьера:23 октября 2013

    Релиз группы:Автор рипа: sociolog_melvas


    Код:

    General
    Complete name                            : D:ТорентыNesnosnyj.ded.2013.RUS.BDRip.XviD.AC3.-HQCLUB.avi
    Format                                   : AVI
    Format/Info                              : Audio Video Interleave
    File size                                : 1.45 GiB
    Duration                                 : 1h 31mn
    Overall bit rate                         : 2 262 Kbps
    Movie name                               : Несносный дед / Jackass Presents: Bad Grandpa [Theatrical Cut] (2013) BDRip
    Director                                 : sociolog_melvas
    Genre                                    : комедия
    Writing application                      : VirtualDubMod 1.5.10.2 (build 2540/release)

    Comment                                  : 12.03.2014

    Video
    ID                                       : 0
    Format                                   : MPEG-4 Visual
    Format profile                           : Advanced Simple@L5
    Format settings, BVOP                    : 1
    Format settings, QPel                    : No
    Format settings, GMC                     : No warppoints
    Format settings, Matrix                  : Custom
    Codec ID                                 : XVID
    Codec ID/Hint                            : XviD
    Duration                                 : 1h 31mn
    Bit rate                                 : 1 805 Kbps
    Width                                    : 704 pixels
    Height                                   : 400 pixels
    Display aspect ratio                     : 16:9
    Frame rate                               : 23.976 fps
    Color space                              : YUV
    Chroma subsampling                       : 4:2:0
    Bit depth                                : 8 bits
    Scan type                                : Progressive
    Compression mode                         : Lossy
    Bits/(Pixel*Frame)                       : 0.267
    Stream size                              : 1.16 GiB (80%)
    Writing library                          : XviD 65

    Audio
    ID                                       : 1
    Format                                   : AC-3
    Format/Info                              : Audio Coding 3
    Mode extension                           : CM (complete main)
    Codec ID                                 : 2000
    Duration                                 : 1h 31mn
    Bit rate mode                            : Constant
    Bit rate                                 : 448 Kbps
    Channel(s)                               : 6 channels
    Channel positions                        : Front: L C R, Side: L R, LFE
    Sampling rate                            : 48.0 KHz
    Bit depth                                : 16 bits
    Compression mode                         : Lossy
    Stream size                              : 294 MiB (20%)
    Alignment                                : Split accross interleaves
    Interleave, duration                     : 42 ms (1.00 video frame)
    Interleave, preload duration             : 500 ms

    Скриншоты:

    Трейлеры к фильмам [2014]
    © Оформление by Raven pb.wtf



  • Скачать Несносный дед через торрент http://pic.kartinco.top/images/6/ordi9.jpg Скачать фильм Несносный дед через торрент бесплантно в хорошем качестве Описание:86-летний старикан по имени Ирвинг Зисман путешествует по Америке с необычным компаньоном - восьмилетним «внуком» Билли.По дороге ... 8.5 10 27
    Info! Золотая раздача, скачанное не засчитывается.
    Торрент: Зарегистрирован [2014-03-15 15:43] · скачан: 1 176 раз
    Статус: √ проверено
    Размер: 1.45 GB
    Как cкачать? Как скачать Несносный дед через торрент | UTorrent

    % Раздел Тема Автор DL S | L
    Фильмы [HD 720p, 1080p] (Хороший звук DUB, MVO) [ 7.76 GB ] Чудаки: Несносный дед / Jackass Presents: Bad Grandpa [2013 BDRip 1080p ]Театральная версия / Theatrical Cut Ворон Скачать
    1 | 0

    28-11-2019 20:33  

    Отключить всю рекламу на сайте

    10-04-2014 08:31 Несносный дед Скачать торрент  

    бредятина та еще pb.wtf



      Дорогой пользователь! Огромная просьба, поблагодарите релизера, оцените раздачу и оставьте свои комментарий, если Вы скачали Несносный дед через торрент бесплатно! Внесите свою лепту в развитие PiratBit!
      Комментировать посты могут только пользователи прошедшие не сложную регистрацию
      Показать сообщения:    

      Несносный дед через торрент
      Скачать бесплатно Несносный дед
      Несносный дед скачать торрент
      Несносный дед смотреть онлайн
      Cкачать фильм Несносный дед бесплатно
      Несносный дед скачать торрент в хорошем качестве
      Несносный дед смотреть онлайн бесплатно в хорошем качестве


      Вы не можете начинать темы
      Вы не можете отвечать на сообщения
      Вы не можете редактировать свои сообщения
      Вы не можете удалять свои сообщения
      Вы не можете голосовать в опросах
      Вы не можете прикреплять файлы к сообщениям
      Вы можете скачивать файлы