Всегда рабочее зеркало без VPN и Proxy просто перед .vidak.icu напиши любое слово или цифру, Пример http://2eu8.vidak.icu

Лицензия

MVO

1 сезон

1

1 сезон

iTunes

1 сезон

13

1 сезон

Deluxe

pack

Рекомендуем

Repack

30

ВАЖНО

RePack

MK11

RePack

jed

RePack

fifa19

RePack

RDR2

RePack

NEED FOR SPEED™ PAYBACK

Кинопоиск HD

6 сезон

 Острые козырьки 6 сезон

Все сериалы

все сериалы на PB.wtf

RePack

FAR CRY 5
  
Magnet ссылка

Замбезия / Zambezia (Уэйн Тонли / Wayne Thornley) [2012, ЮАР, Монголия, мультфильм, комедия, приключения, BDRip,Профессиональный [Дубляж - BD RUS] pb.wtf

Замбезия через торрент pb.wtf

Размер: 1.45 GB | Добавлен: 8 лет 5 мес. назад | Торрент скачан:281 раз
Смотреть онлайн Замбезия | Скачать    Ребята, помогите собрать деньги на оплату серверов!!!

15-03-2014 16:03 Замбезия Скачать торрент  


Замбезия / Zambezia

«Это где-то между Мадагаскаром и Рио»

  • Год выпуска: 2012
  • Страна: ЮАР, Монголия
  • Жанр:мультфильм, комедия, приключения, семейный

  • Продолжительность: 01:22:28
  • Перевод: Профессиональный [Дубляж - BD RUS]

  • Субтитры:русские, английские (полные, SDH) Скачать отдельно⇒
  • Режиссер: Уэйн Тонли / Wayne Thornley
  • В ролях: Леонард Нимой (Sekhuru, озвучка), Джереми Суарес (Kai, озвучка), Эбигейл Бреслин (Zoe, озвучка), Джефф Голдблюм (Ajax, озвучка), Сэмюэл Л. Джексон (Tendai, озвучка), Дженифер Льюис (Gogo, озвучка), Джим Каммингс (Budzo / Marabous, озвучка), Ямал Миксон (Ezee, озвучка), Ричард Э. Грант (Cecil, озвучка), Дэвид Шонесси (Morton, озвучка), Норин ДеВулф (Pavi, озвучка), Таня Гунади (Tini, озвучка)
    • Описание:
      В мультфильме рассказывается история жизни юного соколёнка по имени Кай, его приключения, характер, комичные ситуации в которые он попадает на пути к своей главной цели, на пути к заветному птичьему городку Замбезия, в котором он от всей души желает отыскать новых друзей, которые бы скрасили его одиночество и не оставили в беде. Однако для начала ему необходимо преодолеть путь, который полон опасностей и неожиданных поворотов.

    Бюджет:$20 000 000 / Мировая премьера:5 июня 2012

    Код:

    General
    Complete name                            : D:ТорентыZambeziya.2012.RUS.BDRip.XviD.AC3.-HQCLUB.avi
    Format                                   : AVI
    Format/Info                              : Audio Video Interleave
    File size                                : 1.45 GiB
    Duration                                 : 1h 22mn
    Overall bit rate                         : 2 522 Kbps
    Movie name                               : Замбезия / Zambezia (2012) BDRip
    Director                                 : sociolog_melvas
    Genre                                    : мультфильм,комедия,семейный
    Writing application                      : VirtualDubMod 1.5.10.2 (build 2540/release)

    Comment                                  : 04.03.2014

    Video
    ID                                       : 0
    Format                                   : MPEG-4 Visual
    Format profile                           : Advanced [email protected]
    Format settings, BVOP                    : 1
    Format settings, QPel                    : No
    Format settings, GMC                     : No warppoints
    Format settings, Matrix                  : Custom
    Codec ID                                 : XVID
    Codec ID/Hint                            : XviD
    Duration                                 : 1h 22mn
    Bit rate                                 : 2 064 Kbps
    Width                                    : 704 pixels
    Height                                   : 400 pixels
    Display aspect ratio                     : 16:9
    Frame rate                               : 23.976 fps
    Color space                              : YUV
    Chroma subsampling                       : 4:2:0
    Bit depth                                : 8 bits
    Scan type                                : Progressive
    Compression mode                         : Lossy
    Bits/(Pixel*Frame)                       : 0.306
    Stream size                              : 1.19 GiB (82%)
    Writing library                          : XviD 65

    Audio
    ID                                       : 1
    Format                                   : AC-3
    Format/Info                              : Audio Coding 3
    Mode extension                           : CM (complete main)
    Codec ID                                 : 2000
    Duration                                 : 1h 22mn
    Bit rate mode                            : Constant
    Bit rate                                 : 448 Kbps
    Channel(s)                               : 6 channels
    Channel positions                        : Front: L C R, Side: L R, LFE
    Sampling rate                            : 48.0 KHz
    Bit depth                                : 16 bits
    Compression mode                         : Lossy
    Stream size                              : 264 MiB (18%)
    Alignment                                : Split accross interleaves
    Interleave, duration                     : 42 ms (1.00 video frame)
    Interleave, preload duration             : 500 ms

    Скриншоты:

    Трейлеры к фильмам [2014]
    © Оформление by Raven pb.wtf



  • Скачать Замбезия через торрент https://pic1.kartinco.top/images/61/ordi9.jpg Скачать, смотреть онлайн Замбезия бесплантно в хорошем качестве Описание:В мультфильме рассказывается история жизни юного соколёнка по имени Кай, его приключения, характер, комичные ситуации в которые он ... 10 10 8
    Info! Золотая раздача, скачанное не засчитывается.
    Торрент: Зарегистрирован [2014-03-15 16:03] · скачан: 281 раз
    Статус: √ проверено
    Размер: 1.45 GB
    Как cкачать? Как скачать Замбезия через торрент | UTorrent

    % Раздел Тема Автор DL S | L
    3D Мультфильмы [ 9.63 GB ] Замбезия в 3Д / Zambezia 3D [2012 Мультфильм BDRip 1080p DUB лицензия] Вертикальная стереопара serega768 Скачать
    1 | 0
    Иностранные мультфильмы [ 1.37 GB ] Замбезия / Zambezia [2012 мультфильм HDRip лицензия] inktorrent Скачать
    1 | 0
    3D Мультфильмы [ 4.73 GB ] Замбезия / Zambezia [2012 мультфильм BDRip 1080p DUB] Anaglyph red'cyan slaventi-69 Скачать
    1 | 0
    Зарубежные Мультфильмы (BDRip 1080p, 720p, Blu-ray, BD-Remux) [ 2.66 GB ] Замбезия / Zambezia [2012 мультфильм BDRip 720p лицензия + Оригинал] slaventi-69 Скачать
    1 | 0
    Иностранные мультфильмы [ 1.46 GB ] Замбезия / Zambezia [2012 мультфильм BDRip-AVC ] sergey82 Скачать
    1 | 0
    National Geographic [ 3.83 GB ] Замбези / Zambezi [2010 Документальный HDTVRip 720р] кэп Скачать
    1 | 0
    Зарубежные Мультфильмы (BDRip 1080p, 720p, Blu-ray, BD-Remux) [ 17.29 GB ] Замбезия / Zambezia [2012 мультфильм Blu-Ray DUB лицензия] Pavlin Скачать
    1 | 0

    28-11-2019 20:33  

    Отключить вcю реклaмy на сайте

      Дорогой пользователь! Огромная просьба, поблагодарите релизера, оцените раздачу и оставьте свои комментарий, если Вы скачали Замбезия через торрент бесплатно!
      Комментировать посты могут только пользователи прошедшие не сложную регистрацию
      Показать сообщения:    

      Замбезия через торрент
      Скачать бесплатно Замбезия
      Замбезия скачать торрент
      Замбезия смотреть онлайн
      Cкачать фильм Замбезия бесплатно
      Замбезия скачать торрент в хорошем качестве
      Замбезия смотреть онлайн бесплатно в хорошем качестве


      Вы не можете начинать темы
      Вы не можете отвечать на сообщения
      Вы не можете редактировать свои сообщения
      Вы не можете удалять свои сообщения
      Вы не можете голосовать в опросах
      Вы не можете прикреплять файлы к сообщениям
      Вы можете скачивать файлы