2 сезон

iTunes

MVO

1

2 сезон

iTunes

iTunes

1 сезон

RePack

30

Ultimate

ВАЖНО

ИГРА 18+

pack

RePack

MK11
pack

Легкие деньги

RePack

jed

RePack

fifa19

RePack

RDR2

RePack

NEED FOR SPEED™ PAYBACK

4 сезон

9 сезон

Бесстыжие 9 сезон

Все сериалы

все сериалы на PB.wtf

RePack

FAR CRY 5

Anonymous, доброе утро, мы не успеваем собрать деньги на оплату серверов за декабрь и январь, помогите нам пожалуйста в это трудное время. В качестве благодарности мы отключим Вам всю рекламу на сайте (укажите свой ник в строку Ваше имя)!

×
  
Magnet ссылка

Тайна перевала Дятлова (Ренни Харлин) [2013, Россия, США, триллер, ужасы, фантастика, BDRip,Профессиональный (многоголосый, закадровый)+Оригинал pb.wtf

Тайна перевала Дятлова через торрент pb.wtf

Раздают: 1 [ 0 KB/s ]
Размер: 2.18 GB | Добавлен: 6 лет 10 мес. назад | Торрент скачан:947 раз
Скачать  

15-03-2014 17:43 Тайна перевала Дятлова Скачать торрент  


Тайна перевала Дятлова


  • Год выпуска: 2013
  • Страна: Россия, США
  • Жанр:триллер, ужасы, фантастика

  • Продолжительность: 01:40:20
  • Перевод: Профессиональный (многоголосый, закадровый) BD RUS + Оригинальная звуковая дорожка (английская)

  • Субтитры: Английские (*.srt, внешние) Скачать отдельно⇒
  • Режиссер: Ренни Харлин
  • В ролях: Холли Госс (Холли Кинг), Мэтт Стокоу (Дженсон Дэй), Люк Олбрайт (Джей-Пи Хаузер младший), Райан Хоули (Энди Тэтчер), Джемма Аткинсон (Дениз Эверс), Николай Бутенин (Сергей), Нелли Нилсен (Аля (73 года)), Валерия Федорович (Аля (20 лет)), Алексей Кинк (Валлик), Сергей Лобанов (бармен), Олег Курлов (мужчина №1), Дмитрий Михеев (мужчина №2)
    • Описание:
      Сюжет фильма основан на реальных событиях, произошедших в 1959-м году. В 2012-м году группа американских студентов, получив грант, отправляется на уральские горы, следуя тем же маршрутом, что и группа Дятлова, чтобы попытаться восстановить картину и разгадать причину таинственной, мистической и до сих пор не разгаданной гибели советских лыжников.


    Релиз группы: Автор рипа: Sky™
    • Качество:BDRip
    • Формат:AVI
    • Видео кодек: XviD
    • Аудио кодек:AC3
    • Видео: XviD, 704x384 (16:9), 2214 kbps, 23,976 fps,
    • Аудио №1: AC3 / 5.1 / 48 kHz / 448 kbps / 16 bit-BD RUS
    • Аудио №2: AC3 / 5.1 / 48 kHz / 448 kbps / 16 bit-BD GER


    Код:

    General
    Complete name                            : D:ТорентыTajna.perevala.Dyatlova.GER.2013.DUAL.BDRip.XviD.AC3.-HQCLUB.avi
    Format                                   : AVI
    Format/Info                              : Audio Video Interleave
    File size                                : 2.18 GiB
    Duration                                 : 1h 40mn
    Overall bit rate                         : 3 116 Kbps
    Movie name                               : Тайна перевала Дятлова / The Dyatlov Pass Incident (GER-Transfer) 2013 BDRip
    Director                                 : Sky™
    Genre                                    : триллер, ужасы, фантастика
    Writing application                      : VirtualDubMod 1.5.10.2 (build 2542/release)

    Comment                                  : 12.03.2014

    Video
    ID                                       : 0
    Format                                   : MPEG-4 Visual
    Format profile                           : Advanced Simple@L5
    Format settings, BVOP                    : 1
    Format settings, QPel                    : No
    Format settings, GMC                     : No warppoints
    Format settings, Matrix                  : Custom
    Codec ID                                 : XVID
    Codec ID/Hint                            : XviD
    Duration                                 : 1h 40mn
    Bit rate                                 : 2 086 Kbps
    Width                                    : 704 pixels
    Height                                   : 384 pixels
    Display aspect ratio                     : 16:9
    Frame rate                               : 23.976 fps
    Color space                              : YUV
    Chroma subsampling                       : 4:2:0
    Bit depth                                : 8 bits
    Scan type                                : Progressive
    Compression mode                         : Lossy
    Bits/(Pixel*Frame)                       : 0.322
    Stream size                              : 1.46 GiB (67%)
    Writing library                          : XviD 65

    Audio #1
    ID                                       : 1
    Format                                   : AC-3
    Format/Info                              : Audio Coding 3
    Mode extension                           : CM (complete main)
    Codec ID                                 : 2000
    Duration                                 : 1h 40mn
    Bit rate mode                            : Constant
    Bit rate                                 : 448 Kbps
    Channel(s)                               : 6 channels
    Channel positions                        : Front: L C R, Side: L R, LFE
    Sampling rate                            : 48.0 KHz
    Bit depth                                : 16 bits
    Compression mode                         : Lossy
    Stream size                              : 322 MiB (14%)
    Alignment                                : Split accross interleaves

    Audio #2
    ID                                       : 2
    Format                                   : AC-3
    Format/Info                              : Audio Coding 3
    Mode extension                           : CM (complete main)
    Codec ID                                 : 2000
    Duration                                 : 1h 40mn
    Bit rate mode                            : Constant
    Bit rate                                 : 448 Kbps
    Channel(s)                               : 6 channels
    Channel positions                        : Front: L C R, Side: L R, LFE
    Sampling rate                            : 48.0 KHz
    Bit depth                                : 16 bits
    Compression mode                         : Lossy
    Stream size                              : 322 MiB (14%)
    Alignment                                : Split accross interleaves

    Скриншоты:





    Трейлеры к фильмам [2014]
    © Оформление by Raven pb.wtf



  • Скачать Тайна перевала Дятлова через торрент http://pic.kartinco.top/images/6/ordi9.jpg Скачать фильм Тайна перевала Дятлова через торрент бесплантно в хорошем качестве Описание:Сюжет фильма основан на реальных событиях, произошедших в 1959-м году. В 2012-м году группа американских студентов, получив грант, ... 9.6 10 25
    Info! Золотая раздача, скачанное не засчитывается.
    Торрент: Зарегистрирован [2014-03-15 17:43] · скачан: 947 раз
    Статус: √ проверено
    Размер: 2.18 GB
    Как cкачать? Как скачать Тайна перевала Дятлова через торрент | UTorrent

    % Раздел Тема Автор DL S | L
    Документальные фильмы и телепередачи [ 642 MB ] Перевал Дятлова.Тайна раскрыта [2015 SATRip Оригинал] Ворон Скачать
    1 | 0
    Документальные фильмы и телепередачи [ 1.25 GB ] Тайна горы мертвецов. Перевал Дятлова [2013 документальный HDTVRip Оригинал] кэп Скачать
    1 | 0

    28-11-2019 20:33  

    Отключить всю рекламу на сайте

      Дорогой пользователь! Огромная просьба, поблагодарите релизера, оцените раздачу и оставьте свои комментарий, если Вы скачали Тайна перевала Дятлова через торрент бесплатно! Внесите свою лепту в развитие PiratBit!
      Комментировать посты могут только пользователи прошедшие не сложную регистрацию
      Показать сообщения:    

      Тайна перевала Дятлова через торрент
      Скачать бесплатно Тайна перевала Дятлова
      Тайна перевала Дятлова скачать торрент
      Тайна перевала Дятлова смотреть онлайн
      Cкачать фильм Тайна перевала Дятлова бесплатно
      Тайна перевала Дятлова скачать торрент в хорошем качестве
      Тайна перевала Дятлова смотреть онлайн бесплатно в хорошем качестве


      Вы не можете начинать темы
      Вы не можете отвечать на сообщения
      Вы не можете редактировать свои сообщения
      Вы не можете удалять свои сообщения
      Вы не можете голосовать в опросах
      Вы не можете прикреплять файлы к сообщениям
      Вы можете скачивать файлы