Ссылка на приватное зеркало нашего сайта всего за 1$. Внимание количество ограничено!!!

2 сезон

iTunes

1 сезон

1

iTunes

iTunes

iTunes

1 сезон

RePack

30

ИГРА 18+

pack

ВАЖНО

!!Акция!!

Alien_RageХит недели

RePack

MK11
pack

Забери бонус

RePack

jed

!!Акция!!

Alien_Rage

RePack

fifa19

RePack

Assassins Creed: Odyssey

RePack

NEED FOR SPEED™ PAYBACK

4 сезон

9 сезон

Бесстыжие 9 сезон

Все сериалы

все сериалы на PB.wtf

RePack

FAR CRY 5
  

Время ведьм / Season of the Witch (Доминик Сена / Dominic Sena) [2010, США, фэнтези, боевик, приключения, BDRip,Профессиональный [Дубляж - CEE]+AVO+VO pb.wtf

Время ведьм через торрент pb.wtf

Размер: 1.45 GB | Добавлен: 6 лет 7 мес. назад | Торрент скачан:287 раз
Скачать  

15-03-2014 18:00 Время ведьм Скачать торрент  


Время ведьм / Season of the Witch

«Не все души можно спасти»

  • Год выпуска: 2010
  • Страна: США
  • Жанр:фэнтези, боевик, приключения

  • Продолжительность: 01:34:55
  • Перевод: Профессиональный [Дубляж - CEE]

  • Субтитры: русские (полные (2 вида), форсированные), английские (2 вида) Скачать отдельно⇒
  • Режиссер: Доминик Сена / Dominic Sena
  • В ролях: Николас Кейдж (Behmen von Bleibruck), Рон Перлман (Felson), Стивен Кэмпбелл Мур (Debelzaq), Стивен Грэм (Hagamar), Ульрих Томсен (Johann Eckhart), Клер Фой (The Girl), Роберт Шиэн (Kay von Wollenbarth), Кристофер Ли (Cardinal D'Ambroise), Ребека Кеннеди (Peasant Turk Girl), Эндрю Хефлер (Jail Bailiff), Фернанда Дороги (Old Woman (Givaudon)), Кевин Риис (Dying Monk)
    • Описание:
      XIV столетие. В Европе свирепствует чума. Виновницей смертоносной беды признают беззащитную девушку, подозревая ее в колдовстве. Умирающий кардинал просит рыцаря Бэймена доставить ведьму в далекое аббатство, где ее чары должны быть разрушены.
      Шестеро верховых и повозка с железной клеткой, в которой заточена обвиняемая, отправляются в опасное путешествие. Скоро рыцари осознают, их миловидная спутница действительно не человек, а исчадие ада.

    Бюджет:$40 000 000 / Мировая премьера:4 января 2011

    Релиз группы: Автор рипа: sociolog_melvas

    Код:

    General
    Complete name                            : D:ТорентыVremya.vedm.2011.RUS.BDRip.XviD.AC3.-HQCLUB.avi
    Format                                   : AVI
    Format/Info                              : Audio Video Interleave
    File size                                : 1.45 GiB
    Duration                                 : 1h 34mn
    Overall bit rate                         : 2 190 Kbps
    Movie name                               : Время ведьм / Season of the Witch (2011) BDRip
    Director                                 : sociolog_melvas
    Genre                                    : фэнтези, боевик, приключения
    Writing application                      : VirtualDubMod 1.5.10.2 (build 2540/release)
    Copyright                                : http://hqclub.net/
    Comment                                  : 25.02.2014

    Video
    ID                                       : 0
    Format                                   : MPEG-4 Visual
    Format profile                           : Advanced Simple@L5
    Format settings, BVOP                    : 1
    Format settings, QPel                    : No
    Format settings, GMC                     : No warppoints
    Format settings, Matrix                  : Custom
    Codec ID                                 : XVID
    Codec ID/Hint                            : XviD
    Duration                                 : 1h 34mn
    Bit rate                                 : 1 797 Kbps
    Width                                    : 704 pixels
    Height                                   : 400 pixels
    Display aspect ratio                     : 16:9
    Frame rate                               : 23.976 fps
    Color space                              : YUV
    Chroma subsampling                       : 4:2:0
    Bit depth                                : 8 bits
    Scan type                                : Progressive
    Compression mode                         : Lossy
    Bits/(Pixel*Frame)                       : 0.266
    Stream size                              : 1.19 GiB (82%)
    Writing library                          : XviD 65

    Audio
    ID                                       : 1
    Format                                   : AC-3
    Format/Info                              : Audio Coding 3
    Mode extension                           : CM (complete main)
    Codec ID                                 : 2000
    Duration                                 : 1h 34mn
    Bit rate mode                            : Constant
    Bit rate                                 : 384 Kbps
    Channel(s)                               : 6 channels
    Channel positions                        : Front: L C R, Side: L R, LFE
    Sampling rate                            : 48.0 KHz
    Bit depth                                : 16 bits
    Compression mode                         : Lossy
    Stream size                              : 261 MiB (18%)
    Alignment                                : Split accross interleaves
    Interleave, duration                     : 42 ms (1.00 video frame)
    Interleave, preload duration             : 500 ms

    Скриншоты:

    Трейлеры к фильмам [2014]
    © Оформление by Raven pb.wtf



  • Скачать Время ведьм через торрент http://pic.kartinco.top/images/6/ordi9.jpg Скачать фильм Время ведьм через торрент бесплантно в хорошем качестве Описание:XIV столетие. В Европе свирепствует чума. Виновницей смертоносной беды признают беззащитную девушку, подозревая ее в колдовстве. ... 10 10 13
    Торрент: Зарегистрирован [2014-03-15 18:00] · скачан: 287 раз
    Статус: √ проверено
    Размер: 1.45 GB
    Как cкачать? Как скачать Время ведьм через торрент | qTorrent

    % Раздел Тема Автор DL S | L
    * Фильмы [HD 720p, 1080p] (Хороший звук DUB, MVO) [ 7.37 GB ] Время ведьм / Season of the Witch [2010 BDRip-HEVC 1080p] DUB + 5xAVO RealOldGamer Скачать
    4 | 2
    Фильмы (Blu-ray, BD-Remux, HDDVD) [ 48.68 GB ] Время ведьм / Season of the Witch [2011 BD Remux 1080p] [US Transfer] 5xAVO+DUB [] bober100 Скачать
    1 | 0
    Фильмы [HD 720p, 1080p] (Хороший звук DUB, MVO) [ 19.73 GB ] Время ведьм / Season of the Witch [2010 BDRip 1080p by msltel] DUB 2 x AVO VO 2 x VO msltel Скачать
    1 | 0
    Фильмы [HD 720p, 1080p] (Хороший звук DUB, MVO) [ 5.7 GB ] Время ведьм / Season of the Witch [2010 BDRip 720p by msltel] DUB 2 x AVO VO 2 x VO msltel Скачать
    1 | 0

    28-11-2019 20:33  

    Отключить всю рекламу на сайте

    15-03-2014 19:38 Время ведьм Скачать торрент  

    Подскажите как вставлять отдельно скачаное адио, перевод ? Спс!pb.wtf



    15-03-2014 19:44 Время ведьм Скачать торрент  

    Меня очень впечатлил фильм, а в эту ведьму (Клер Фой) просто влюблен... pb.wtf



    15-03-2014 20:36 Время ведьм Скачать торрент  

    Peps
    http://h-y-c.ru/knowledge-base/programs/video/19-how-to-add-a-separate-audio-track-in-kmplayere.html
    pb.wtf



    16-03-2014 00:30 Время ведьм Скачать торрент  

    Raven
    Спасибо огромное, честно не знал, оказывается все просто и ясно как белый день! Отлично, еще одно умение в копилочку... pb.wtf



      Дорогой пользователь! Огромная просьба, поблагодарите релизера, оцените раздачу и оставьте свои комментарий, если Вы скачали Время ведьм через торрент бесплатно! Внесите свою лепту в развитие PiratBit!
      Комментировать посты могут только пользователи прошедшие не сложную регистрацию
      Показать сообщения:    

      Время ведьм через торрент
      Скачать бесплатно Время ведьм
      Время ведьм скачать торрент
      Время ведьм смотреть онлайн
      Cкачать фильм Время ведьм бесплатно
      Время ведьм скачать торрент в хорошем качестве
      Время ведьм смотреть онлайн бесплатно в хорошем качестве


      Вы не можете начинать темы
      Вы не можете отвечать на сообщения
      Вы не можете редактировать свои сообщения
      Вы не можете удалять свои сообщения
      Вы не можете голосовать в опросах
      Вы не можете прикреплять файлы к сообщениям
      Вы можете скачивать файлы