Мега распродажа FORZA HORIZON 4 ULTIMATE+ВСЕ DLC+ОНЛАЙН всего за 499р. 349 руб. (супер цена). Внимание количество ограничено!!!

iTunes

1+1

iTunes

мы

iTunes

1

1 сезон

Чернобыль

1 сезон

Ральф против интернета

Лицензия

ПШазам

8 сезон

Игра престолов

Лицензия

30
pack

ВАЖНО

!!Акция!!

Alien_RageХит недели

RePack

Resident Evil 21

ИГРА 18+

pack

RePack

Metro:Exodus

!!Акция!!

Alien_Rage

RePack

fifa19

RePack

Assassins Creed: Odyssey

RePack

NEED FOR SPEED™ PAYBACK

3 сезон

9 сезон

Бесстыжие 9 сезон

Все сериалы

все сериалы на PB.wtf

RePack

FAR CRY 5
Ребята, катастрофически не хватает 2730р. для оплаты серверов за ИЮНЬ (всвязи с блокировками трафик упал в 3 раза), 1-2р., выручайте.
  

Аве, Цезарь / Hail Caesar (Энтони Майкл Холл / Anthony Michael Hall) [ 1994 , США , комедия , DVDRip, MVO ] pb.wtf

Аве, Цезарь через торрент pb.wtf

Размер: 1.45 GB | Добавлен: 5 лет 4 мес. назад | Торрент скачан:16 раз
Скачать  

16-03-2014 04:37 Аве, Цезарь Скачать торрент  

Аве, Цезарь / Hail CaesarГод выпуска:1994
Страна: США
Жанр: комедия

Продолжительность: 01:37:22
Перевод: Профессиональный (многоголосый, закадровый)

Субтитры: Нет
Режиссер: Энтони Майкл Холл / Anthony Michael Hall

В ролях: Энтони Майкл Холл (Julius Caesar McMurty), Бобби Филлипс (Buffer Bidwell), Лесли Данон (Annie), Николас Прайор (Bidwell), Кэйн Пикой (Remora), Сэмюэл Л. Джексон (Mailman), Илья Волох (Wlad), Роберт Дауни мл. (Jerry), Филлип Б. Фэйхи (Dave), Фрэнк Горшин (Pete Dewitt), Сэльма Костер (Miss Poydras), Грант Крамер (Squash Pro)
Описание:
Родители-археологи назвали своего сына Юлий Цезарь. Отчисленный из института, Юлий Цезарь Макгрудер решает «полностью сконцентрироваться» на музыке и своей рок группе. Настоящей же его страстью была дочь местного магната - Баффер.
Мистер Бидвелл терпеть не мог ухажера своей дочери и поэтому за то, чтобы Юлий исчез из ее жизни, он делает ему предложение: сначала 50 тысяч долларов, потом - 75 и окончательно -100 тысяч долларов!
Но Юлий Цезарь не продается! И они заключают пари: через шесть месяцев сам Юлий Цезарь Макгрудер должен предъявить мистеру Бидвеллу заработанные 100 тысяч долларов... Лучше бы он взял деньги!

Рейтинг
kinopoisk.ru: 4.769 (182)
imdb.com: 3.10 (550)
MPAA: PG - Рекомендуется присутствие родителей
Качество: DVDRip
Формат: AVI
Видео кодек: XviD
Аудио кодек: AC3/MP3
Видео: XviD, 704x528 (4:3), 1737 kbps, 23,976 fps, 0,195 bpp
Аудио №1: Русский MP3 / 2.0 / 48 kHz / 192 kbps /
Аудио №2: Английский AC3 / 2.0 / 48 kHz / 192 kbps / 16 bit
© Оформление by ФёдорOFF
General
Complete name : D:раздачиAve_Tsezar.avi
Format : AVI
Format/Info : Audio Video Interleave
File size : 1.45 GiB
Duration : 1h 37mn
Overall bit rate : 2 136 Kbps

Video
ID : 0
Format : MPEG-4 Visual
Format profile : Advanced Simple@L5
Format settings, BVOP : No
Format settings, QPel : No
Format settings, GMC : No warppoints
Format settings, Matrix : Default (MPEG)
Codec ID : XVID
Codec ID/Hint : XviD
Duration : 1h 37mn
Bit rate : 1 738 Kbps
Width : 704 pixels
Height : 528 pixels
Display aspect ratio : 4:3
Frame rate : 23.976 fps
Color space : YUV
Chroma subsampling : 4:2:0
Bit depth : 8 bits
Scan type : Progressive
Compression mode : Lossy
Bits/(Pixel*Frame) : 0.195
Stream size : 1.18 GiB (81%)
Writing library : XviD 1.1.2 (UTC 2006-11-01)

Audio #1
ID : 1
Format : MPEG Audio
Format version : Version 1
Format profile : Layer 3
Codec ID : 55
Codec ID/Hint : MP3
Duration : 1h 37mn
Source duration : 1h 37mn
Bit rate mode : Constant
Bit rate : 192 Kbps
Channel(s) : 2 channels
Sampling rate : 48.0 KHz
Compression mode : Lossy
Stream size : 134 MiB (9%)
Alignment : Aligned on interleaves
Interleave, duration : 42 ms (1.00 video frame)

Audio #2
ID : 2
Format : AC-3
Format/Info : Audio Coding 3
Mode extension : CM (complete main)
Codec ID : 2000
Duration : 1h 37mn
Source duration : 1h 37mn
Bit rate mode : Constant
Bit rate : 192 Kbps
Channel(s) : 2 channels
Channel positions : Front: L R
Sampling rate : 48.0 KHz
Bit depth : 16 bits
Compression mode : Lossy
Stream size : 134 MiB (9%)
Alignment : Aligned on interleaves
Interleave, duration : 42 ms (1.00 video frame)
pb.wtf



Скачать Аве, Цезарь через торрент http://i3.imageban.ru/out/2014/03/16/afd8f2d3ec859f012c5273cb537f2216.jpg Скачать фильм Аве, Цезарь через торрент бесплантно в хорошем качестве Описание: Родители-археологи назвали своего сына Юлий Цезарь. Отчисленный из института, Юлий Цезарь Макгрудер решает «полностью ... 8.1 10 8
Info! Золотая раздача, скачанное не засчитывается.
Торрент: Зарегистрирован [2014-03-16 04:37] · скачан: 16 раз
Статус: √ проверено
Размер: 1.45 GB
Как cкачать? Как скачать Аве, Цезарь через торрент | qTorrent

% Раздел Тема Автор DL S | L
Фильмы с авторской озвучкой [ 1.45 GB ] Аве Цезарь / Hail Caesar [1994 DVDRip] [AVO] killermax2013 Скачать
1 | 0


>> Регистрируемся здесь <<






Отзывы и комментарии о схеме читаем и пишем здесь: ---> Отзывы и комментарии о схеме

Новые благодарочки в телеграм довольных пользователей:
скриншот   скриншот   скриншот   скриншот   скриншот
    Дорогой пользователь! Огромная просьба, поблагодарите релизера, оцените раздачу и оставьте свои комментарий, если Вы скачали Аве, Цезарь через торрент бесплатно! Внесите свою лепту в развитие PiratBit!
    Комментировать посты могут только пользователи прошедшие не сложную регистрацию
    Показать сообщения:    

    Аве, Цезарь через торрент
    Скачать бесплатно Аве, Цезарь
    Аве, Цезарь скачать торрент
    Аве, Цезарь смотреть онлайн
    Cкачать фильм Аве, Цезарь бесплатно
    Аве, Цезарь скачать торрент в хорошем качестве
    Аве, Цезарь смотреть онлайн бесплатно в хорошем качестве


    Вы не можете начинать темы
    Вы не можете отвечать на сообщения
    Вы не можете редактировать свои сообщения
    Вы не можете удалять свои сообщения
    Вы не можете голосовать в опросах
    Вы не можете прикреплять файлы к сообщениям
    Вы можете скачивать файлы