Мега распродажа FORZA HORIZON 4 ULTIMATE+ВСЕ DLC+ОНЛАЙН всего за 499р. 349 руб. (супер цена). Внимание количество ограничено!!!

iTunes

1+1

iTunes

мы

iTunes

1

1 сезон

Чернобыль

1 сезон

Ральф против интернета

Лицензия

ПШазам

8 сезон

Игра престолов

Лицензия

30
pack

ВАЖНО

!!Акция!!

Alien_RageХит недели

RePack

Resident Evil 21

ИГРА 18+

pack

RePack

Metro:Exodus

!!Акция!!

Alien_Rage

RePack

fifa19

RePack

Assassins Creed: Odyssey

RePack

NEED FOR SPEED™ PAYBACK

3 сезон

9 сезон

Бесстыжие 9 сезон

Все сериалы

все сериалы на PB.wtf

RePack

FAR CRY 5
Ребята, катастрофически не хватает 2730р. для оплаты серверов за ИЮНЬ (всвязи с блокировками трафик упал в 3 раза), 1-2р., выручайте.
  

Высокая кухня Сезон: 1 / Серии: 4 из 4 (Владислав Николаев) [2014 г., мелодрама, SATRip] pb.wtf

Высокая кухня Сезон: 1 через торрент pb.wtf

Размер: 2.18 GB | Добавлен: 5 лет 4 мес. назад | Торрент скачан:204 раза
Скачать  

16-03-2014 06:16 Высокая кухня Сезон: 1 Скачать торрент  

Высокая кухня Год выпуска: 2014
Страна: Россия
Жанр: мелодрама,
Продолжительность: : 4 х 45 минут

Режиссер: Владислав Николаев

В ролях: Анна Пескова, Михаил Мамаев, Александр Галибин, Михаил Горевой, Сергей Друзьяк, Сергей Габриэлян, Александр Орлов (IV), Дмитрий Блохин,

Описание: Действие происходит в крупном российском городе, в наши дни. По сюжету главная героиня сериала Высокая кухня – Маша, дочь владельца ресторана Андреева. Мама Маши погибла, когда девочке было всего 10 лет.Отец Маши приводит в дом другую женщину, но их отношения с девушкой не ладятся.В результате после одного из семейных конфликтов Маша уходит из дома и оказывается в ночном клубе, где ее ожидают опасные неожиданности...

Качество: SATRip
Формат: AVI
Видео кодек: DivX
Аудио кодек: MP3
Видео: MPEG4, DivX 5, 720x384 (1.875), 25.000 fps, 1 600 Kbps (0.231 bit/pixel)
Аудио: MP3 , 48.0 KHz, 2 ch, 128 Kbps, CBR
скриншот   скриншот   скриншот   скриншот   скриншот   скриншот   скриншот   скриншот  

Код:

Формат                           : AVI
Формат/Информация                : Audio Video Interleave
Размер файла                     : 577 Мбайт
Продолжительность                : 46 м.
Общий поток                      : 1738 Кбит/сек
Программа кодирования            : VirtualDubMod 1.5.10.2 (build 2540/release)
Библиотека кодирования           : VirtualDub build 29808/release

Видео
Идентификатор                    : 0
Формат                           : MPEG-4 Visual
Параметр BVOP формата            : Нет
Параметр QPel формата            : Нет
Параметр GMC формата             : Без точки перехода
Параметр матрицы формата         : Default (H.263)
Идентификатор кодека             : DX50
Идентификатор кодека/Подсказка   : DivX 5
Продолжительность                : 46 м.
Битрейт                          : 1600 Кбит/сек
Ширина                           : 720 пикс.
Высота                           : 384 пикс.
Соотношение сторон               : 1,875
Частота кадров                   : 25,000 кадр/сек
Цветовое пространство            : YUV
Подвыборка цветности             : 4:2:0
Битовая глубина                  : 8 бит
Тип развёртки                    : Прогрессивная
Метод сжатия                     : С потерями
Бит/(Пиксели*Кадры)              : 0.231
Размер потока                    : 531 Мбайт (92%)
Библиотека кодирования           : DivX 6.8.5 (UTC 2009-08-20)

Аудио
Идентификатор                    : 1
Формат                           : MPEG Audio
Версия формата                   : Version 1
Профиль формата                  : Layer 3
Режим                            : Joint stereo
Расширение режима                : MS Stereo
Идентификатор кодека             : 55
Идентификатор кодека/Подсказка   : MP3
Продолжительность                : 46 м.
Вид битрейта                     : Постоянный
Битрейт                          : 128 Кбит/сек
Канал(ы)                         : 2 канала(ов)
Частота                          : 48,0 КГц
Метод сжатия                     : С потерями
Размер потока                    : 42,5 Мбайт (7%)
Выравнивание                     : Соединение по промежуткам
Продолжительность промежутка     : 40  мс. (1,00 видеокадр)
Время предзагрузки промежутка    : 504 ms
Библиотека кодирования           : LAME3.90.3


pb.wtf



Скачать Высокая кухня Сезон: 1 через торрент http://pic.kartinco.top/images/6/ofh45.jpg Скачать фильм Высокая кухня Сезон: 1 через торрент бесплантно в хорошем качестве Описание: Действие происходит в крупном российском городе, в наши дни. По сюжету главная героиня сериала Высокая кухня – Маша, дочь ... 9 10 6
Info! Золотая раздача, скачанное не засчитывается.
Торрент: Зарегистрирован [2014-03-16 06:16] · скачан: 204 раз
Статус: √ проверено
Размер: 2.18 GB
Как cкачать? Как скачать Высокая кухня Сезон: 1 через торрент | qTorrent


>> Регистрируемся здесь <<






Отзывы и комментарии о схеме читаем и пишем здесь: ---> Отзывы и комментарии о схеме

Новые благодарочки в телеграм довольных пользователей:
скриншот   скриншот   скриншот   скриншот   скриншот
    Дорогой пользователь! Огромная просьба, поблагодарите релизера, оцените раздачу и оставьте свои комментарий, если Вы скачали Высокая кухня Сезон: 1 через торрент бесплатно! Внесите свою лепту в развитие PiratBit!
    Комментировать посты могут только пользователи прошедшие не сложную регистрацию
    Показать сообщения:    

    Высокая кухня Сезон: 1 через торрент
    Скачать бесплатно Высокая кухня Сезон: 1
    Высокая кухня Сезон: 1 скачать торрент
    Высокая кухня Сезон: 1 смотреть онлайн
    Cкачать фильм Высокая кухня Сезон: 1 бесплатно
    Высокая кухня Сезон: 1 скачать торрент в хорошем качестве
    Высокая кухня Сезон: 1 смотреть онлайн бесплатно в хорошем качестве


    Вы не можете начинать темы
    Вы не можете отвечать на сообщения
    Вы не можете редактировать свои сообщения
    Вы не можете удалять свои сообщения
    Вы не можете голосовать в опросах
    Вы не можете прикреплять файлы к сообщениям
    Вы можете скачивать файлы