Ссылка на приватное зеркало нашего сайта всего за 1$. Внимание количество ограничено!!!

2 сезон

iTunes

1 сезон

1

2 сезон

2 сезон

iTunes

1 сезон

RePack

30

Новинка

ВАЖНО

ИГРА 18+

pack

RePack

MK11
pack

Забери бонус

RePack

jed

!!Акция!!

Alien_Rage

RePack

fifa19

RePack

Assassins Creed: Odyssey

RePack

NEED FOR SPEED™ PAYBACK

4 сезон

9 сезон

Бесстыжие 9 сезон

Все сериалы

все сериалы на PB.wtf

RePack

FAR CRY 5
  

Бойлерная / Boiler Room (Бен Янгер) [2000, Триллер, Драма, Криминал, BD Remux,] от R.G. PiratFilms pb.wtf

Бойлерная через торрент pb.wtf

Размер: 23.36 GB | Добавлен: 6 лет 8 мес. назад | Торрент скачан:2 раза
Скачать  

16-03-2014 08:52 Бойлерная Скачать торрент  

Бойлерная / Boiler Room
«Если ты такой умный, где же твои деньги?»


Информация о фильме

Год выпуска: 2000
Страна: США
Жанр: Триллер, Драма, Криминал
Продолжительность: 01:59:32
Перевод: Многоголосый закадровый
Режиссер: Бен Янгер
В ролях: Джованни Рибизи, Вин Дизель, Ниа Лонг, Бен Аффлек, Никки Кэтт, Скотт Каан, Том Эверетт Скотт, Рон Рифкин, Джейми Кеннеди, Тейлор Николс, Билл Сейдж, Джон Грисмер


Описание фильма:

Задавались ли вы когда-нибудь вопросом, почему некоторые люди выигрывают в лотерею миллионы долларов, а вы нет? Почему вы зарабатываете 4 тыс. долларов в год, а секретарша из «Майкрософт» 140 тыс. долларов? Почему какой-то балбес раскатывает на новеньком «Феррари», а вы с трудом накопили на подержанный «Вольво»? Неужели эти люди умнее или лучше вас? Эти же вопросы задавал себе и Сэт Девис, молодой шулер, открывший в своей квартире небольшое подпольное казино. Судьба к нему благосклонна и один из клиентов, неимоверно богатый молодой человек, предлагает ему работать на некую брокерскую фирму, где месячная зарплата превышает годовой доход от его казино. Сет счастлив, его мечта осуществляется, деньги льются рекой, но вскоре он начинает понимать, что за все в жизни приходится расплачиваться...

Информация о файле:

Качество: BD Remux | Исходник: Blu-ray | Синхронизация звука и видео: XLASER
Формат: MKV
Видео кодек: AVC
Аудио кодек: AC3|DTS
Видео: 1920x1080 (16:9), 23764 Кбит/сек, 23,976 fps
Аудио №1: DTS-HD, 1596 Кбит/сек, 48 КГц
Аудио №2: DTS-HD, 1671 Кбит/сек, 48 КГц
Аудио №3: AC3, 192 Кбит/сек, 2 каналов, 48 КГц
Аудио №4: AC3, 192 Кбит/сек, 2 каналов, 48 КГц
Субтитры: S_HDMV|PGS, Английские




Код:

Формат                                   : Matroska
Версия формата                           : Version 4 / Version 2
Размер файла                             : 23,4 Гбайт
Продолжительность                        : 1 ч. 59 м.
Режим общего битрейта                    : Переменный
Общий поток                              : 28,0 Мбит/сек
Дата кодирования                         : UTC 2014-03-12 09:47:56
Программа кодирования                    : mkvmerge v6.8.0 ('Theme for Great Cities') 32bit built on Mar  2 2014 21:27:07
Библиотека кодирования                   : libebml v1.3.0 + libmatroska v1.4.1

Видео
Идентификатор                            : 1
Формат                                   : AVC
Формат/Информация                        : Advanced Video Codec
Профиль формата                          : High@L4.0
Параметр CABAC формата                   : Да
Параметр ReFrames формата                : 2 кадра
Параметр GOP формата                     : M=1, N=10
Идентификатор кодека                     : V_MPEG4/ISO/AVC
Продолжительность                        : 1 ч. 59 м.
Вид битрейта                             : Переменный
Битрейт                                  : 23,8 Мбит/сек
Ширина                                   : 1920 пикселей
Высота                                   : 1080 пикселей
Соотношение сторон                       : 16:9
Режим частоты кадров                     : Постоянный
Частота кадров                           : 23,976 кадра/сек
Цветовое пространство                    : YUV
Субдискретизация насыщенности            : 4:2:0
Битовая глубина                          : 8 бит
Тип развёртки                            : Прогрессивная
Бит/(Пиксели*Кадры)                      : 0.478
Размер потока                            : 19,8 Гбайт (85%)
Default                                  : Да
Forced                                   : Нет

Аудио #1
Идентификатор                            : 2
Формат                                   : DTS
Формат/Информация                        : Digital Theater Systems
Профиль формата                          : MA / Core
Идентификатор кодека                     : A_DTS
Продолжительность                        : 1 ч. 59 м.
Вид битрейта                             : Переменный
Битрейт                                  : 1597 Кбит/сек / 1510 Кбит/сек
Каналы                                   : 8 каналов / 6 каналов
Расположение каналов                     : Front: L C R, Side: L R, Back: L R, LFE / Front: L C R, Side: L R, LFE
Частота                                  : 48,0 КГц
Битовая глубина                          : 24 бит
Метод сжатия                             : Без потерь / Lossy
Язык                                     : English
Default                                  : Да
Forced                                   : Нет

Аудио #2
Идентификатор                            : 3
Формат                                   : DTS
Формат/Информация                        : Digital Theater Systems
Профиль формата                          : MA / Core
Идентификатор кодека                     : A_DTS
Продолжительность                        : 1 ч. 59 м.
Вид битрейта                             : Переменный
Битрейт                                  : 1672 Кбит/сек / 1510 Кбит/сек
Каналы                                   : 8 каналов / 6 каналов
Расположение каналов                     : Front: L C R, Side: L R, Back: L R, LFE / Front: L C R, Side: L R, LFE
Частота                                  : 48,0 КГц
Битовая глубина                          : 24 бит
Метод сжатия                             : Без потерь / Lossy
Язык                                     : Russian
Default                                  : Нет
Forced                                   : Нет

Аудио #3
Идентификатор                            : 4
Формат                                   : AC-3
Формат/Информация                        : Audio Coding 3
Профиль формата                          : Dolby Digital
Расширение режима                        : CM (complete main)
Параметр Endianness формата              : Big
Идентификатор кодека                     : A_AC3
Продолжительность                        : 1 ч. 59 м.
Вид битрейта                             : Постоянный
Битрейт                                  : 192 Кбит/сек
Каналы                                   : 2 канала
Расположение каналов                     : Front: L R
Частота                                  : 48,0 КГц
Битовая глубина                          : 16 бит
Метод сжатия                             : С потерями
Размер потока                            : 164 Мбайт (1%)
Язык                                     : Russian
Default                                  : Нет
Forced                                   : Нет

Аудио #4
Идентификатор                            : 5
Формат                                   : AC-3
Формат/Информация                        : Audio Coding 3
Профиль формата                          : Dolby Digital
Расширение режима                        : CM (complete main)
Параметр Endianness формата              : Big
Идентификатор кодека                     : A_AC3
Продолжительность                        : 1 ч. 59 м.
Вид битрейта                             : Постоянный
Битрейт                                  : 192 Кбит/сек
Каналы                                   : 2 канала
Расположение каналов                     : Front: L R
Частота                                  : 48,0 КГц
Битовая глубина                          : 16 бит
Метод сжатия                             : С потерями
Размер потока                            : 164 Мбайт (1%)
Язык                                     : English
Default                                  : Нет
Forced                                   : Нет

Текст
Идентификатор                            : 6
Формат                                   : PGS
Режим смешивания                         : zlib
Идентификатор кодека                     : S_HDMV/PGS
Идентификатор кодека/Информация          : The same subtitle format used on BDs/HD-DVDs
Язык                                     : English
Default                                  : Да
Forced                                   : Нет



скриншот   скриншот   скриншот   скриншот   скриншот  


pb.wtf



Скачать Бойлерная через торрент http://pic.kartinco.top/images/6/7gn85.jpg Скачать фильм Бойлерная через торрент бесплантно в хорошем качестве Описание фильма: Задавались ли вы когда-нибудь вопросом, почему некоторые люди выигрывают в лотерею миллионы долларов, а вы нет? Почему вы ... 10 10 6
Info! Золотая раздача, скачанное не засчитывается.
Торрент: Зарегистрирован [2014-03-16 08:52] · скачан: 2 раз
Статус: √ проверено
Размер: 23.36 GB
Как cкачать? Как скачать Бойлерная через торрент | qTorrent

% Раздел Тема Автор DL S | L
Фильмы [HD 720p, 1080p] (Хороший звук DUB, MVO) [ 8.38 GB ] Бойлерная / Boiler Room [2000 BDRip 1080p] от R.G. PiratFilms XLASER Скачать
1 | 0

28-11-2019 20:33  

Отключить всю рекламу на сайте

    Дорогой пользователь! Огромная просьба, поблагодарите релизера, оцените раздачу и оставьте свои комментарий, если Вы скачали Бойлерная через торрент бесплатно! Внесите свою лепту в развитие PiratBit!
    Комментировать посты могут только пользователи прошедшие не сложную регистрацию
    Показать сообщения:    

    Бойлерная через торрент
    Скачать бесплатно Бойлерная
    Бойлерная скачать торрент
    Бойлерная смотреть онлайн
    Cкачать фильм Бойлерная бесплатно
    Бойлерная скачать торрент в хорошем качестве
    Бойлерная смотреть онлайн бесплатно в хорошем качестве


    Вы не можете начинать темы
    Вы не можете отвечать на сообщения
    Вы не можете редактировать свои сообщения
    Вы не можете удалять свои сообщения
    Вы не можете голосовать в опросах
    Вы не можете прикреплять файлы к сообщениям
    Вы можете скачивать файлы