Ссылка на приватное зеркало всего за 1$. Внимание количество ограничено!!!

OK

1+1

iTunes

мы

OK

1

WEB-DLRip

Джокер

Пифагор

Ведьмак / The Witcher сериал

Лицензия

ПШазам

ОК

Оно 2

iTunes

30
pack

Вам бонус

ВАЖНО

!!Акция!!

Alien_RageХит недели

RePack

Resident Evil 21

ИГРА 18+

pack

RePack

jed

!!Акция!!

Alien_Rage

RePack

fifa19

RePack

Assassins Creed: Odyssey

RePack

NEED FOR SPEED™ PAYBACK

4 сезон

9 сезон

Бесстыжие 9 сезон

Все сериалы

все сериалы на PB.wtf

RePack

FAR CRY 5
  

Вий (Олег Степченко) [2013, фентези, триллер, приключения, BDRip 1080p]3D [Вертикальная анаморфная стереопара] pb.wtf

Вий через торрент pb.wtf

Размер: 14.04 GB | Добавлен: 5 лет 10 мес. назад | Торрент скачан:2058 раз
Скачать  

16-03-2014 09:46 Вий Скачать торрент  


Вий

«Evil wears many faces»

  • Год выпуска:2013
  • Страна:Россия, Украина, Германия, Великобритания, Чехия
  • Жанр: фэнтези, триллер, приключения

  • Продолжительность: 02:10:12
  • Перевод: Не требуется

  • Субтитры: Нет
  • Режиссер:Олег Степченко
  • В ролях: Джейсон Флеминг (Джонатан Грин), Андрей Смоляков (отец Паисий), Алексей Чадов (Петрусь), Александр Яковлев (Оверко), Игорь Жижикин (Дорош), Агния Дитковските (Настуся), Ольга Зайцева (панночка), Валерий Золотухин (Явтух), Виктор Бычков (кузнец), Юрий Цурило (Сотник), Анна Чурина (мисс Дадли), Чарльз Дэнс (лорд Дадли)
    • Описание:
      Начало XVIII века. Картограф Джонатан Грин совершает научное путешествие из Европы на Восток. Проследовав через Трансильванию и преодолев Карпатские горы, он попадает в затерянную среди непроходимых лесов деревушку. Только воля случая и густой туман могли занести его в это проклятое место. Народ, живущий здесь, не похож ни на один доселе виданный путешественником. Эти люди, оградив себя от остального мира глубоким рвом, наивно верят, что смогут уберечься от нечисти, не понимая, что она уже давно поселилась в их душах и только ждёт случая, чтобы вырваться наружу. Даже в страшном сне учёный-материалист не предполагал, что здесь ему уготована встреча с верным слугой дьявола.

    Бюджет:$26 000 000 / Мировая премьера:30 января 2014
    • Качество: BDRip 1080p
    • Формат 3D: Half OverUnder / Вертикальная анаморфная стереопара
      Порядок ракурсов: левый ракурс первый
    • Видео кодек: AVC
    • Аудио кодек:AC3
    • Видео: AVC / 23,976 fps / 1920х1080p / 14.5 Mbps
    • Аудио: Русский / AC3 / 48 KHz / 5.1 ch / 640 Kbps


    Общее
    Уникальный идентификатор : 211324490564838997989048183906789800008 (0x9EFB9DCEC1F00A29AE66D3EE608CB848)
    Полное имя : F:my filmsVIY_3D.mkv
    Формат : Matroska
    Версия формата : Version 2
    Размер файла : 13,5 Гбайт
    Продолжительность : 2 ч. 10 м.
    Общий поток : 14,9 Мбит/сек
    Название фильма : VIY_3D_Half_O/U
    Дата кодирования : UTC 2014-03-16 03:43:01
    Программа кодирования : mkvmerge v5.7.0 ('The Whirlwind') built on Aug 7 2012 14:11:40
    Библиотека кодирования : libebml v1.2.3 + libmatroska v1.3.0

    Видео
    Идентификатор : 1
    Формат : AVC
    Формат/Информация : Advanced Video Codec
    Профиль формата : High@L4.1
    Параметр CABAC формата : Да
    Параметр ReFrames формата : 4 кадра
    Идентификатор кодека : V_MPEG4/ISO/AVC
    Продолжительность : 2 ч. 10 м.
    Битрейт : 14,0 Мбит/сек
    Ширина : 1920 пикселей
    Высота : 1080 пикселей
    Соотношение сторон : 16:9
    Режим частоты кадров : Постоянный
    Частота кадров : 23,976 кадра/сек
    Цветовое пространство : YUV
    Субдискретизация насыщенности : 4:2:0
    Битовая глубина : 8 бит
    Тип развёртки : Прогрессивная
    Бит/(Пиксели*Кадры) : 0.281
    Размер потока : 12,7 Гбайт (94%)
    Заголовок : riup by I/N
    Библиотека кодирования : x264 core 128 r2216M 198a7ea
    Настройки программы : cabac=1 / ref=4 / deblock=1:-3:-3 / analyse=0x3:0x133 / me=umh / subme=10 / psy=1 / psy_rd=1.00:0.15 / mixed_ref=1 / me_range=32 / chroma_me=1 / trellis=2 / 8x8dct=1 / cqm=0 / deadzone=21,11 / fast_pskip=1 / chroma_qp_offset=-3 / threads=8 / lookahead_threads=1 / sliced_threads=0 / nr=0 / decimate=1 / interlaced=0 / bluray_compat=0 / constrained_intra=0 / bframes=6 / b_pyramid=2 / b_adapt=2 / b_bias=0 / direct=3 / weightb=1 / open_gop=0 / weightp=2 / keyint=230 / keyint_min=23 / scenecut=40 / intra_refresh=0 / rc_lookahead=60 / rc=crf / mbtree=1 / crf=17.0 / qcomp=0.60 / qpmin=0 / qpmax=69 / qpstep=4 / vbv_maxrate=40000 / vbv_bufsize=30000 / crf_max=30.0 / nal_hrd=none / ip_ratio=1.40 / aq=1:1.00
    Default : Да
    Forced : Нет

    Аудио
    Идентификатор : 2
    Формат : AC-3
    Формат/Информация : Audio Coding 3
    Расширение режима : CM (complete main)
    Параметр Endianness формата : Big
    Идентификатор кодека : A_AC3
    Продолжительность : 2 ч. 10 м.
    Вид битрейта : Постоянный
    Битрейт : 640 Кбит/сек
    Каналы : 6 каналов
    Расположение каналов : Front: L C R, Side: L R, LFE
    Частота : 48,0 КГц
    Битовая глубина : 16 бит
    Метод сжатия : С потерями
    Задержка видео : 100 мс.
    Размер потока : 596 Мбайт (4%)
    Заголовок : Дубляж
    Язык : Russian
    Default : Да
    Forced : Нет

    Меню
    00:00:00.000 : en:(01)00:00:00:000
    00:16:15.474 : en:(02)00:16:15:474
    00:32:07.634 : en:(03)00:32:07:634
    00:44:54.650 : en:(04)00:44:54:650
    01:07:12.194 : en:(05)01:07:12:194
    01:20:37.791 : en:(06)01:20:37:791
    01:37:30.803 : en:(07)01:37:30:803
    01:52:43.131 : en:(08)01:52:43:131
    02:10:12.304 : en:(09)02:10:12:304
    Скриншоты:

    Трейлеры к фильмам [2014]
    © Оформление by Raven pb.wtf



  • Скачать Вий через торрент http://pic.kartinco.top/images/6/ordi9.jpg Скачать фильм Вий через торрент бесплантно в хорошем качестве Описание:Начало XVIII века. Картограф Джонатан Грин совершает научное путешествие из Европы на Восток. Проследовав через Трансильванию и ... 9.6 10 36
    Info! Золотая раздача, скачанное не засчитывается.
    Торрент: Зарегистрирован [2014-03-16 10:13] · скачан: 2 058 раз
    Статус: √ проверено
    Размер: 14.04 GB
    Как cкачать? Как скачать Вий через торрент | qTorrent

    % Раздел Тема Автор DL S | L
    Фильмы [HD 720p, 1080p] (Хороший звук DUB, MVO) [ 11.92 GB ] Вий [2013 BDRip 1080p ] Seedtank Скачать
    1 | 0
    Зарубежная Поп музыка (mp3) [ 80 MB ] ABBA - ВИА АББА 1977 / MP3 / 320 kbps / Pop Dance Disco Retro megatoxa Скачать
    6 | 1
    Наши сериалы [ 7.62 GB ] Истребители. Последний бой / Сезон:2 / Серии:1-12 из 12 [2015 Военный WEB-DLRip] lug30 Скачать
    1 | 0
    Наши сериалы [ 1.84 GB ] Смерш / Серии: 1-4 из 4 [2007 Военный DVDRip] lug30 Скачать
    1 | 0
    Отечественная Поп музыка (mp3) [ 132 MB ] ВИА Пламя - Не повторяется такое никогда 1996 / MP3 / 320 kbps / Советская эстрада Retro megatoxa Скачать
    1 | 0
    Наши новые фильмы 2013 [ 1.46 GB ] Вий [2013 фентези DVDRip] Ворон Скачать
    1 | 0
    Порно фильмы с сюжетом [ 1.29 GB ] Рабыня Содомских Удовольствий / Schiava Dei Piaceri Di Sodoma [1995 Feature DVDRip Оригинал] Pir@tya2010 Скачать
    1 | 0

    28-11-2019 20:33  

    Отключить всю рекламу на сайте

    16-03-2014 18:06 Вий Скачать торрент  

    скорость-0. Жаль.pb.wtf



    17-03-2014 14:41 Вий Скачать торрент  

    На разик, вечер скрасить сойдёт. Правда растянуто всё как-то шибко.)pb.wtf



    20-03-2014 15:36 Вий Скачать торрент  

    через 5мин заболели глазаpb.wtf



    04-04-2014 03:17 Вий Скачать торрент  

    на LG LA662V вылетает через 3 сек........не качайте!!!!pb.wtf



    29-04-2014 14:59 Вий Скачать торрент  

    Кто знает в чем дело?Samsung tv 3d при запуске на тв экран черный а звук есть,останавливаю запускаю занова появляется уменьшеный экран розового цвета в полоску,звук есть.Раньше стереопары смотрел без проблем!pb.wtf



      Дорогой пользователь! Огромная просьба, поблагодарите релизера, оцените раздачу и оставьте свои комментарий, если Вы скачали Вий через торрент бесплатно! Внесите свою лепту в развитие PiratBit!
      Комментировать посты могут только пользователи прошедшие не сложную регистрацию
      Показать сообщения:    

      Вий через торрент
      Скачать бесплатно Вий
      Вий скачать торрент
      Вий смотреть онлайн
      Cкачать фильм Вий бесплатно
      Вий скачать торрент в хорошем качестве
      Вий смотреть онлайн бесплатно в хорошем качестве


      Вы не можете начинать темы
      Вы не можете отвечать на сообщения
      Вы не можете редактировать свои сообщения
      Вы не можете удалять свои сообщения
      Вы не можете голосовать в опросах
      Вы не можете прикреплять файлы к сообщениям
      Вы можете скачивать файлы