2 сезон

iTunes

MVO

1

2 сезон

iTunes

iTunes

1 сезон

RePack

30

Новинка

ВАЖНО

ИГРА 18+

pack

RePack

MK11
pack

Легкие деньги

RePack

jed

RePack

fifa19

RePack

RDR2

RePack

NEED FOR SPEED™ PAYBACK

4 сезон

9 сезон

Бесстыжие 9 сезон

Все сериалы

все сериалы на PB.wtf

RePack

FAR CRY 5

Anonymous, добрый день, мы не успеваем собрать деньги на оплату серверов за декабрь и январь, помогите нам пожалуйста в это трудное время. В качестве благодарности мы отключим Вам всю рекламу на сайте (укажите свой ник в строку Ваше имя)!

×
  
Magnet ссылка

Долина прощаний / Sayonara keikoku / The Ravine of Goodbye (Тацуси Омори / Tatsushi Ohmori) [2013, Япония, драма, HDRip-AVC] MVO + Jap pb.wtf

Долина прощаний через торрент pb.wtf

Раздают: 1 [ 0 KB/s ]
Размер: 1.45 GB | Добавлен: 6 лет 10 мес. назад | Торрент скачан:73 раза
Скачать  

16-03-2014 14:14 Долина прощаний Скачать торрент  

Долина прощаний
Sayonara keikoku / The Ravine of Goodbye




Страна: Япония
Студия: Stardust Pictures (SDP), Studio Three Co. Ltd.
Жанр: драма
Год выпуска: 2013
Продолжительность: 01:57:42

Перевод: Профессиональный (многоголосый, закадровый) [тк Культура]
Cубтитры: English
Оригинальная аудиодорожка: Japanese

Режиссер:
Тацуси Омори / Tatsushi Ohmori

В ролях:
Хирофуми Ара, Мансаку Икеуч, Арата Иур, Хана Кин, Хоука Киносит, Йоко Мак, Izumi Mina, Масаки Миур, Сима Ониси, Энн Сузуки, Нао Омори

Описание:
В долине, в густой чаще леса, убивают ребенка. Его мать, Сатоми Татибана, арестована как главная подозреваемая. Полиция узнает, что у Сатоми роман с ее соседом Сюнсуке Одзаки. Этим делом начинает интересоваться корреспондент журнала — Ватанабе, он обнаруживает шокирующий факт…


Релиз:

Автор рипа: Stalker oK

Сэмпл: multi-up

Качество видео: HDRip-AVC [BDRip 720p WiKi]
Формат видео: MKV
Видео кодек: AVC
Аудио кодек: AC3
Видео: 1381 Кбит/сек, 894*482 (1,855), в 23,976 кадр/сек, AVC
Аудио #1: Russian, 192 Кбит/сек, 48,0 КГц, 16 бит, 2 канала(ов), AC-3
Аудио #2: Japanese, 192 Кбит/сек, 48,0 КГц, 16 бит, 2 канала(ов), AC-3
Общее
Уникальный идентификатор : 174095545869721119054719305875337058899 (0x82F9951E8E45A478B469AB0BF4C91A53)
Полное имя : H:The.Ravine.of.GoodbyeDolina_proshhanij_2013_HDRip_AVC_MVO__stalkerok_new-team.mkv
Формат : Matroska
Размер файла : 1,45 Гбайт
Продолжительность : 1 ч. 57 м.
Общий поток : 1766 Кбит/сек
Название фильма : Sayonara keikoku (2013) (New-Team) (Rip by Stalker oK)
Дата кодирования : UTC 2014-03-16 13:30:06
Программа кодирования : mkvmerge v6.2.0 ('Promised Land') built on Apr 28 2013 12:22:01
Библиотека кодирования : libebml v1.3.0 + libmatroska v1.4.0

Видео
Идентификатор : 1
Формат : AVC
Формат/Информация : Advanced Video Codec
Профиль формата : High@L4.1
Параметр CABAC формата : Да
Параметр ReFrames формата : 10 кадры
Идентификатор кодека : V_MPEG4/ISO/AVC
Продолжительность : 1 ч. 57 м.
Битрейт : 1381 Кбит/сек
Ширина : 894 пикс.
Высота : 482 пикс.
Соотношение сторон : 1,855
Частота кадров : 23,976 кадр/сек
Цветовое пространство : YUV
Подвыборка цветности : 4:2:0
Битовая глубина : 8 бит
Тип развёртки : Прогрессивная
Бит/(Пиксели*Кадры) : 0.134
Размер потока : 1,11 Гбайт (76%)
Библиотека кодирования : x264 core 138 r2358 9e941d1
Настройки программы : cabac=1 / ref=10 / deblock=1:-2:-1 / analyse=0x3:0x133 / me=umh / subme=10 / psy=1 / psy_rd=1.00:0.05 / mixed_ref=1 / me_range=32 / chroma_me=1 / trellis=2 / 8x8dct=1 / cqm=0 / deadzone=21,11 / fast_pskip=0 / chroma_qp_offset=-3 / threads=6 / lookahead_threads=1 / sliced_threads=0 / nr=0 / decimate=0 / interlaced=0 / bluray_compat=0 / constrained_intra=0 / bframes=12 / b_pyramid=2 / b_adapt=2 / b_bias=0 / direct=3 / weightb=1 / open_gop=0 / weightp=2 / keyint=240 / keyint_min=23 / scenecut=40 / intra_refresh=0 / rc_lookahead=80 / rc=2pass / mbtree=1 / bitrate=1381 / ratetol=1.0 / qcomp=0.65 / qpmin=0 / qpmax=69 / qpstep=4 / cplxblur=20.0 / qblur=0.5 / vbv_maxrate=20000 / vbv_bufsize=25000 / nal_hrd=none / ip_ratio=1.40 / aq=2:1.00

Аудио #1
Идентификатор : 2
Формат : AC-3
Формат/Информация : Audio Coding 3
Расширение режима : CM (complete main)
Идентификатор кодека : A_AC3
Продолжительность : 1 ч. 57 м.
Вид битрейта : Постоянный
Битрейт : 192 Кбит/сек
Канал(ы) : 2 канала(ов)
Расположение каналов : Front: L R
Частота : 48,0 КГц
Битовая глубина : 16 бит
Метод сжатия : С потерями
Размер потока : 162 Мбайт (11%)
Заголовок : AC3 2.0 @ 192 kbps ТК Культура
Язык : Russian

Аудио #2
Идентификатор : 3
Формат : AC-3
Формат/Информация : Audio Coding 3
Расширение режима : CM (complete main)
Идентификатор кодека : A_AC3
Продолжительность : 1 ч. 57 м.
Вид битрейта : Постоянный
Битрейт : 192 Кбит/сек
Канал(ы) : 2 канала(ов)
Расположение каналов : Front: L R
Частота : 48,0 КГц
Битовая глубина : 16 бит
Метод сжатия : С потерями
Размер потока : 162 Мбайт (11%)
Заголовок : AC3 2.0 @ 192 kbps
Язык : Japanese

Текст
Идентификатор : 4
Формат : UTF-8
Идентификатор кодека : S_TEXT/UTF8
Идентификатор кодека/Информация : UTF-8 Plain Text
Язык : English

Меню
00:00:00.000 : en:00:00:00.000
00:10:37.511 : en:00:10:37.511
00:23:52.973 : en:00:23:52.973
00:38:02.738 : en:00:38:02.738
00:45:15.879 : en:00:45:15.879
00:54:11.456 : en:00:54:11.456
01:12:01.692 : en:01:12:01.692
01:40:35.029 : en:01:40:35.029
01:57:40.053 : en:01:57:40.053
pb.wtf



Скачать Долина прощаний через торрент http://i4.imageban.ru/out/2013/11/20/23afd37ba301cf29b16658cd2201c4ed.png Скачать фильм Долина прощаний через торрент бесплантно в хорошем качестве Описание:В долине, в густой чаще леса, убивают ребенка. Его мать, Сатоми Татибана, арестована как главная подозреваемая. Полиция узнает, ... 8.9 10 8
Торрент: Зарегистрирован [2014-03-16 14:14] · скачан: 73 раз
Статус: √ проверено
Размер: 1.45 GB
Как cкачать? Как скачать Долина прощаний через торрент | UTorrent

% Раздел Тема Автор DL S | L
Азиатские фильмы [ 2.19 GB ] Долина прощаний / Sayonara keikoku / The Ravine of Goodbye [2013 Япония HDRip-AVC] MVO + Jap sokol_ok Скачать
2 | 0

28-11-2019 20:33  

Отключить всю рекламу на сайте

    Дорогой пользователь! Огромная просьба, поблагодарите релизера, оцените раздачу и оставьте свои комментарий, если Вы скачали Долина прощаний через торрент бесплатно! Внесите свою лепту в развитие PiratBit!
    Комментировать посты могут только пользователи прошедшие не сложную регистрацию
    Показать сообщения:    

    Долина прощаний через торрент
    Скачать бесплатно Долина прощаний
    Долина прощаний скачать торрент
    Долина прощаний смотреть онлайн
    Cкачать фильм Долина прощаний бесплатно
    Долина прощаний скачать торрент в хорошем качестве
    Долина прощаний смотреть онлайн бесплатно в хорошем качестве


    Вы не можете начинать темы
    Вы не можете отвечать на сообщения
    Вы не можете редактировать свои сообщения
    Вы не можете удалять свои сообщения
    Вы не можете голосовать в опросах
    Вы не можете прикреплять файлы к сообщениям
    Вы можете скачивать файлы