Ссылка на приватное зеркало нашего сайта всего за 1$. Внимание количество ограничено!!!

2 сезон

iTunes

1 сезон

1

iTunes

iTunes

iTunes

1 сезон

RePack

30

ИГРА 18+

pack

ВАЖНО

!!Акция!!

Alien_RageХит недели

RePack

MK11
pack

Забери бонус

RePack

jed

!!Акция!!

Alien_Rage

RePack

fifa19

RePack

Assassins Creed: Odyssey

RePack

NEED FOR SPEED™ PAYBACK

4 сезон

9 сезон

Бесстыжие 9 сезон

Все сериалы

все сериалы на PB.wtf

RePack

FAR CRY 5
  

Колония / The Colony (Джефф Ренфро / Jeff Renfroe) [2013г., ужасы, фантастика, боевик, BDRip 720p]Профессиональный (Дубляж) Лицензия pb.wtf

Колония через торрент pb.wtf

Размер: 4.62 GB | Добавлен: 6 лет 7 мес. назад | Торрент скачан:345 раз
Скачать  

16-03-2014 14:19 Колония Скачать торрент  

Колония / The Colony«Они выжили после апокалипсиса. Но не только они»
Год выпуска: 2013
Страна: Канада
Жанр: ужасы, фантастика, боевик

Продолжительность: 01:34:26

  • Перевод: Профессиональный (Дубляж);
  • Тип релиза: Лицензия

Режиссер: Джефф Ренфро / Jeff Renfroe

В ролях: Кевин Зегерс (Sam), Лоренс Фишбёрн (Briggs), Шарлотта Салливан (Kai), Билл Пэкстон (Mason), Аттикус Дин Митчелл (Graydon), Дрю Вигевер (Feral Leader), Джулиан Ричингс (Leland), Джон Тенч (Viktor), Майкл Мэндо (Cooper), Романо Орцари (Reynolds), Лиза Берри (Nara), Люсиус Хойос (Rowan)
Описание: После природного катаклизма, под ледяной поверхностью, покрывшей Землю, оставшиеся в живых люди собрались в Колонию 7 и пытаются выжить несмотря на сокращающиеся запасы продовольствия. Они еще поддерживают связь с Колонией 5, но после того, как контакт с ними теряется, группа смельчаков отправляется в опасную экспедицию, чтобы выяснить, что произошло с их соседями. Преодолев тяжелейший путь герои сталкиваются с опасностью во много раз превосходящую природную угрозу холода...

    Тип релиза: BDRip 720p
  • Контейнер: MKV
  • Видео кодек: H.264 | Аудио кодек: AC3, DTS
  • Видео: 1280x544 (2.35:1), 5116 kbps, 23,976 fps, 0,306 bpp
  • Аудио 1: русский / AC3 / 5.1 / 48 kHz / 384 kbps / 16 bit
  • Аудио 2: английский / DTS / 5.1 / 48 kHz / 1510 kbps / 24 bit
  • Субтитры: English
  • Чаптеры: 16шт.

Код:

General
Unique ID                                : 238293353558306357315981214171739329640 (0xB345A16989DB0CB185DDB935FA461468)
Complete name                            : D:torrenttorThe.Colony.2013.BDRip.720p.mkv
Format                                   : Matroska
Format version                           : Version 2
File size                                : 4.62 GiB
Duration                                 : 1h 34mn
Overall bit rate                         : 7 008 Kbps
Encoded date                             : UTC 2014-02-23 13:06:38
Writing application                      : mkvmerge v5.2.0 ('I can't explain') built on Dec 18 2011 18:12:03
Writing library                          : libebml v1.2.3 + libmatroska v1.3.0

Video
ID                                       : 1
Format                                   : AVC
Format/Info                              : Advanced Video Codec
Format profile                           : High@L4.1
Format settings, CABAC                   : Yes
Format settings, ReFrames                : 5 frames
Muxing mode                              : Header stripping
Codec ID                                 : V_MPEG4/ISO/AVC
Duration                                 : 1h 34mn
Bit rate                                 : 5 116 Kbps
Width                                    : 1 280 pixels
Height                                   : 544 pixels
Display aspect ratio                     : 2.35:1
Frame rate                               : 23.976 fps
Color space                              : YUV
Chroma subsampling                       : 4:2:0
Bit depth                                : 8 bits
Scan type                                : Progressive
Bits/(Pixel*Frame)                       : 0.306
Stream size                              : 3.28 GiB (71%)
Writing library                          : x264 core 138 r2358 9e941d1
Encoding settings                        : cabac=1 / ref=5 / deblock=1:-3:-3 / analyse=0x3:0x113 / me=umh / subme=8 / psy=1 / psy_rd=1.00:0.00 / mixed_ref=1 / me_range=16 / chroma_me=1 / trellis=1 / 8x8dct=1 / cqm=0 / deadzone=21,11 / fast_pskip=1 / chroma_qp_offset=-2 / threads=18 / lookahead_threads=3 / sliced_threads=0 / nr=0 / decimate=1 / interlaced=0 / bluray_compat=0 / constrained_intra=0 / bframes=3 / b_pyramid=2 / b_adapt=2 / b_bias=0 / direct=3 / weightb=1 / open_gop=0 / weightp=2 / keyint=240 / keyint_min=24 / scenecut=40 / intra_refresh=0 / rc_lookahead=50 / rc=2pass / mbtree=1 / bitrate=5116 / ratetol=1.0 / qcomp=0.60 / qpmin=0 / qpmax=69 / qpstep=4 / cplxblur=20.0 / qblur=0.5 / ip_ratio=1.40 / aq=1:1.00
Language                                 : English
Default                                  : No
Forced                                   : No

Audio #1
ID                                       : 2
Format                                   : AC-3
Format/Info                              : Audio Coding 3
Mode extension                           : CM (complete main)
Muxing mode                              : Header stripping
Codec ID                                 : A_AC3
Duration                                 : 1h 34mn
Bit rate mode                            : Constant
Bit rate                                 : 384 Kbps
Channel(s)                               : 6 channels
Channel positions                        : Front: L C R, Side: L R, LFE
Sampling rate                            : 48.0 KHz
Bit depth                                : 16 bits
Compression mode                         : Lossy
Stream size                              : 259 MiB (5%)
Language                                 : Russian
Default                                  : Yes
Forced                                   : Yes

Audio #2
ID                                       : 3
Format                                   : DTS
Format/Info                              : Digital Theater Systems
Muxing mode                              : Header stripping
Codec ID                                 : A_DTS
Duration                                 : 1h 34mn
Bit rate mode                            : Constant
Bit rate                                 : 1 510 Kbps
Channel(s)                               : 6 channels
Channel positions                        : Front: L C R, Side: L R, LFE
Sampling rate                            : 48.0 KHz
Bit depth                                : 24 bits
Compression mode                         : Lossy
Delay relative to video                  : 11ms
Stream size                              : 1 020 MiB (22%)
Language                                 : English
Default                                  : No
Forced                                   : No

Text #1
ID                                       : 4
Format                                   : UTF-8
Codec ID                                 : S_TEXT/UTF8
Codec ID/Info                            : UTF-8 Plain Text
Title                                    : SDH
Language                                 : English
Default                                  : No
Forced                                   : No

Text #2
ID                                       : 5
Format                                   : UTF-8
Codec ID                                 : S_TEXT/UTF8
Codec ID/Info                            : UTF-8 Plain Text
Language                                 : English
Default                                  : No
Forced                                   : No

Menu
00:00:00.000                             : en:00:00:00.000
00:05:53.728                             : en:00:05:53.728
00:10:33.591                             : en:00:10:33.591
00:16:26.986                             : en:00:16:26.986
00:22:16.710                             : en:00:22:16.710
00:29:13.001                             : en:00:29:13.001
00:34:23.770                             : en:00:34:23.770
00:41:45.461                             : en:00:41:45.461
00:46:29.829                             : en:00:46:29.829
00:51:49.940                             : en:00:51:49.940
00:56:46.403                             : en:00:56:46.403
01:04:19.856                             : en:01:04:19.856
01:12:08.950                             : en:01:12:08.950
01:16:49.480                             : en:01:16:49.480
01:21:19.416                             : en:01:21:19.416
01:25:46.391                             : en:01:25:46.391


pb.wtf



Скачать Колония через торрент http://i3.imageban.ru/out/2014/03/16/e39300ec43d81b60b9d594509e2676ab.jpg Скачать фильм Колония через торрент бесплантно в хорошем качестве Описание: После природного катаклизма, под ледяной поверхностью, покрывшей Землю, оставшиеся в живых люди собрались в Колонию 7 и пытаются ... 9 10 18
Info! Золотая раздача, скачанное не засчитывается.
Торрент: Зарегистрирован [2014-03-16 14:19] · скачан: 345 раз
Статус: √ проверено
Размер: 4.62 GB
Как cкачать? Как скачать Колония через торрент | qTorrent

% Раздел Тема Автор DL S | L
Фильмы 2013 [DVDrip, WEB-DLRip, HDrip] [ 1.46 GB ] Колония / The Colony [2013 HDRip / [лицензия] Ворон Скачать
1 | 0


Последний раз редактировалось: diletant (2014-03-16 14:28), всего редактировалось 2 раз(а)

28-11-2019 20:33  

Отключить всю рекламу на сайте

16-03-2014 14:27 Колония Скачать торрент  

Просто бредятина...pb.wtf



16-03-2014 17:20 Колония Скачать торрент  

operokunp писал(а):

Просто бредятина...

согласен.Достаточно интересное и интригующее начало,но вот после того,как герои увидели людоедов-тупой трешак в стиле ТВ 3pb.wtf



17-03-2014 07:38 Колония Скачать торрент  

Фильм не хватает звезд с неба и не пытается казаться больше, чем есть на самом деле.
Бодренький постапокалиптический Survival horrorpb.wtf



    Дорогой пользователь! Огромная просьба, поблагодарите релизера, оцените раздачу и оставьте свои комментарий, если Вы скачали Колония через торрент бесплатно! Внесите свою лепту в развитие PiratBit!
    Комментировать посты могут только пользователи прошедшие не сложную регистрацию
    Показать сообщения:    

    Колония через торрент
    Скачать бесплатно Колония
    Колония скачать торрент
    Колония смотреть онлайн
    Cкачать фильм Колония бесплатно
    Колония скачать торрент в хорошем качестве
    Колония смотреть онлайн бесплатно в хорошем качестве


    Вы не можете начинать темы
    Вы не можете отвечать на сообщения
    Вы не можете редактировать свои сообщения
    Вы не можете удалять свои сообщения
    Вы не можете голосовать в опросах
    Вы не можете прикреплять файлы к сообщениям
    Вы можете скачивать файлы