Всегда рабочее зеркало без VPN и Proxy просто перед .vidak.icu напиши любое слово или цифру, Пример http://drqp.vidak.icu

MVO

2 сезон

2 сезон

1

1 сезон

iTunes

2 сезон

13

1 сезон

Deluxe

pack

Рекомендуем

Пиратка

30

ВАЖНО

RePack

MK11

RePack

jed

RePack

fifa19

RePack

RDR2

RePack

NEED FOR SPEED™ PAYBACK

Кинопоиск HD

6 сезон

 Острые козырьки 6 сезон

Все сериалы

все сериалы на PB.wtf

RePack

FAR CRY 5

Anonymous, нам критически не хватает 5601 руб. на оплату серверов и переферии за Апрель, помоги нам пожалуйста, вся надежда только на тебя. В благодарность мы отключим тебе всю рекламу на сайте!

×
  
Magnet ссылка

Дракула 3D / Dracula 3D (Дарио Ардженто / Dario Argento) [ 2012 , Италия, Франция, Испания , ужасы, триллер, мелодрама , BDRip 1080p 3D ] MVO [Лицензия] Вертикальная анаморфная стереопара- от R.G. HD-Films pb.wtf

Дракула 3D через торрент pb.wtf

Размер: 10.26 GB | Добавлен: 8 лет 1 мес. назад | Торрент скачан:531 раз
Смотреть онлайн Дракула 3D | Скачать    Ребята, помогите собрать деньги на оплату серверов!!!

16-03-2014 16:26 Дракула 3D Скачать торрент  


Дракула 3D
Dracula 3D
Страна: Италия, Франция, Испания
Жанр: ужасы, триллер, мелодрама
Год выпуска: 2012
Продолжительность: 01:50:00
Перевод: Профессиональный (многоголосый, закадровый)[Лицензия]
Субтитры: Русские полные (А. Кедров + algambra)
Режиссер: Дарио Ардженто / Dario Argento
В ролях: Томас Кречман (Dracula), Марта Гастини (Mina Harker), Азия Ардженто (Lucy Kisslinger), Унакс Угальде (Jonathan Harker), Мириам Джованелли (Tanja), Рутгер Хауэр (Van Helsing), Мария Кристина Хеллер (Jarmila), Аугусто Дзукки (Andrej Kisslinger), Франко Равера (Prete), Франческо Россини (Ten. Delbruck), Джованни Франзони (Renfield), Джузеппе Ло Консоле (Zoran)
Описание: Трансильвания, 1893 год. Молодой библиотекарь Джонатан Харкер прибывает в деревню Пассо Борго, нанявшись на работу к местному аристократу графу Дракуле. Познакомившись со своим загадочным хозяином, Джонатан вскоре узнает истинную натуру графа и понимает, в какой опасности находится он сам и его жена Мина. Одни за другим вокруг таинственно погибают люди. Кажется, только Авраам ван Хельсинг, уже встречавшийся на пути графа, способен изменить их печальную участь.

Качество: BDRip 1080p 3D
Контейнер: MKV
Формат 3D: Half OverUnder / Вертикальная анаморфная стереопара
Порядок ракурсов: левый ракурс первый
Видео кодек: x264
Аудио кодек: AC3
Видео: AVC, 1920x1080 (16:9), 12184 kbps, 23,976 fps, 0,245 bpp
Аудио №1: русский / AC3 / 5.1 / 48 kHz / 448 kbps / 16 bit ||
Аудио №2: английский / AC3 / 5.1 / 48 kHz / 448 kbps / 16 bit
General
Unique ID : 179064539298725858564564026660191290993 (0x86B6936906DDC098909E4AFF061D4671)
Complete name : D:ТорентыDracula3D(3D)2012.__Piratbit.net.mkv
Format : Matroska
Format version : Version 4 / Version 2
File size : 10.3 GiB
Duration : 1h 50mn
Overall bit rate : 13.3 Mbps
Movie name : Release for Piratbit.net_R.G. HD-Films
Encoded date : UTC 2014-03-16 16:04:08
Writing application : mkvmerge v6.4.1 ('Omega Point') built on Sep 16 2013 22:05:10
Writing library : libebml v1.3.0 + libmatroska v1.4.1

Video
ID : 1
Format : AVC
Format/Info : Advanced Video Codec
Format profile : High@L4.1
Format settings, CABAC : Yes
Format settings, ReFrames : 4 frames
Codec ID : V_MPEG4/ISO/AVC
Duration : 1h 50mn
Bit rate : 12.2 Mbps
Width : 1 920 pixels
Height : 1 080 pixels
Display aspect ratio : 16:9
Frame rate : 23.976 fps
Color space : YUV
Chroma subsampling : 4:2:0
Bit depth : 8 bits
Scan type : Progressive
Bits/(Pixel*Frame) : 0.245
Stream size : 9.36 GiB (91%)
Title : Release for Piratbit.net_R.G. HD-Films
Writing library : x264 core 129 r2245 bc13772
Encoding settings : cabac=1 / ref=4 / deblock=1:-3:-3 / analyse=0x3:0x113 / me=umh / subme=9 / psy=1 / psy_rd=1.00:0.15 / mixed_ref=1 / me_range=32 / chroma_me=1 / trellis=2 / 8x8dct=1 / cqm=0 / deadzone=21,11 / fast_pskip=1 / chroma_qp_offset=-3 / threads=12 / lookahead_threads=2 / sliced_threads=0 / nr=0 / decimate=1 / interlaced=0 / bluray_compat=0 / constrained_intra=0 / bframes=6 / b_pyramid=2 / b_adapt=2 / b_bias=0 / direct=3 / weightb=1 / open_gop=0 / weightp=2 / keyint=250 / keyint_min=23 / scenecut=40 / intra_refresh=0 / rc_lookahead=60 / rc=crf / mbtree=1 / crf=17.0 / qcomp=0.70 / qpmin=0 / qpmax=69 / qpstep=4 / vbv_maxrate=40000 / vbv_bufsize=30000 / crf_max=0.0 / nal_hrd=none / frame-packing=4 / ip_ratio=1.40 / aq=1:0.70
Language : Russian
Default : Yes
Forced : No

Audio #1
ID : 2
Format : AC-3
Format/Info : Audio Coding 3
Mode extension : CM (complete main)
Codec ID : A_AC3
Duration : 1h 50mn
Bit rate mode : Constant
Bit rate : 448 Kbps
Channel(s) : 6 channels
Channel positions : Front: L C R, Side: L R, LFE
Sampling rate : 48.0 KHz
Bit depth : 16 bits
Compression mode : Lossy
Stream size : 353 MiB (3%)
Language : Russian
Default : Yes
Forced : No

Audio #2
ID : 3
Format : AC-3
Format/Info : Audio Coding 3
Mode extension : CM (complete main)
Codec ID : A_AC3
Duration : 1h 50mn
Bit rate mode : Constant
Bit rate : 448 Kbps
Channel(s) : 6 channels
Channel positions : Front: L C R, Side: L R, LFE
Sampling rate : 48.0 KHz
Bit depth : 16 bits
Compression mode : Lossy
Stream size : 353 MiB (3%)
Language : English
Default : No
Forced : No

Text
ID : 4
Format : UTF-8
Codec ID : S_TEXT/UTF8
Codec ID/Info : UTF-8 Plain Text
Default : Yes
Forced : No


Релиз подготовлен специально для Piratbit.net. Синхронизация звука и видео by Raven

Трейлеры к фильмам [2014] pb.wtf



Скачать Дракула 3D через торрент https://pic1.kartinco.top/images/61/tc6iz.jpg Скачать, смотреть онлайн Дракула 3D бесплантно в хорошем качестве Описание: Трансильвания, 1893 год. Молодой библиотекарь Джонатан Харкер прибывает в деревню Пассо Борго, нанявшись на работу к местному ... 9.9 10 15
Info! Золотая раздача, скачанное не засчитывается.
Торрент: Зарегистрирован [2014-03-16 16:26] · скачан: 531 раз
Статус: √ проверено
Размер: 10.26 GB
Как cкачать? Как скачать Дракула 3D через торрент | UTorrent

28-11-2019 20:33  

Отключить всю рекламу на сайте

    Дорогой пользователь! Огромная просьба, поблагодарите релизера, оцените раздачу и оставьте свои комментарий, если Вы скачали Дракула 3D через торрент бесплатно!
    Комментировать посты могут только пользователи прошедшие не сложную регистрацию
    Показать сообщения:    

    Дракула 3D через торрент
    Скачать бесплатно Дракула 3D
    Дракула 3D скачать торрент
    Дракула 3D смотреть онлайн
    Cкачать фильм Дракула 3D бесплатно
    Дракула 3D скачать торрент в хорошем качестве
    Дракула 3D смотреть онлайн бесплатно в хорошем качестве


    Вы не можете начинать темы
    Вы не можете отвечать на сообщения
    Вы не можете редактировать свои сообщения
    Вы не можете удалять свои сообщения
    Вы не можете голосовать в опросах
    Вы не можете прикреплять файлы к сообщениям
    Вы можете скачивать файлы