Ссылка на приватное зеркало нашего сайта всего за 1$. Внимание количество ограничено!!!

2 сезон

iTunes

1 сезон

1

iTunes

iTunes

iTunes

1 сезон

RePack

30

ИГРА 18+

pack

ВАЖНО

!!Акция!!

Alien_RageХит недели

RePack

MK11
pack

Забери бонус

RePack

jed

!!Акция!!

Alien_Rage

RePack

fifa19

RePack

Assassins Creed: Odyssey

RePack

NEED FOR SPEED™ PAYBACK

4 сезон

9 сезон

Бесстыжие 9 сезон

Все сериалы

все сериалы на PB.wtf

RePack

FAR CRY 5
  

Счастливые годы / Those happy years / Anni felici (Даниэле Лукетти) [2013 г., драма, HDRip, Любительский одноголосый] pb.wtf

Счастливые годы через торрент pb.wtf

Размер: 2.06 GB | Добавлен: 6 лет 7 мес. назад | Торрент скачан:10 раз
Скачать  

16-03-2014 18:01 Счастливые годы Скачать торрент  

Счастливые годы / Those happy years / Anni felici
Год выпуска: 2013
Страна: Италия, Франция / Cattleya, Babe Film, Rai Cinema
Жанр: драма.
Продолжительность: 01:45:59
Перевод: Любительский одноголосый(Pashaup)

Режиссер: Даниэле Лукетти



В ролях: Ким Росси Стюарт, Микаела Рамаццотти, Мартина Гедек, Никколо Кальванья, Бенедетта Буччеллато, Анжелика Каваллари, Иван Кастильоне, Сильвия Де Фанти.

Описание: Рим, 1974 год. Дарио, 10-летний сын Гвидо и Серены. Пары, которая оказывается в середине эмоционального кризиса. Семья Гвидо, творческие интеллигенты, резко критиковали его решение жениться на девушке из семьи торговцев, поскольку их сын мечтал стать известным художником. В это время его милая жена Серена, кажется, заботится только о счастье других. Вместе с братом Паоло, Дарио становится свидетелем разногласий между родителями и существования семьи на грани распада.

Качество: HDRip
Формат: AVI
Видео кодек: XviD
Аудио кодек: AC3
Видео: 720x384 (1.88:1), 24.000 fps, XviD build 50 ~2322 kbps avg, 0.35 bit/pixel
Аудио: 48 kHz, AC3 Dolby Digital, 3/2 (L,C,R,l,r) + LFE ch, ~448 kbps


Общее
Полное имя : H:киноThose.Happy.Years.2013.Blu.Ray.720p.CINEMANIA.avi
Формат : AVI
Формат/Информация : Audio Video Interleave
Профиль формата : OpenDML
Размер файла : 2,06 Гбайт
Продолжительность : 1 ч. 45 м.
Общий поток : 2778 Кбит/сек
Программа кодирования : VirtualDubMod 1.5.10.3 | www.virtualdub-fr.org || (build 2550/release)
Библиотека кодирования : VirtualDubMod build 2550/release

Видео
Идентификатор : 0
Формат : MPEG-4 Visual
Профиль формата : Advanced Simple@L5
Параметр BVOP формата : 2
Параметр QPel формата : Нет
Параметр GMC формата : Без точки перехода
Параметр матрицы формата : Default (H.263)
Идентификатор кодека : XVID
Идентификатор кодека/Подсказка : XviD
Продолжительность : 1 ч. 45 м.
Битрейт : 2317 Кбит/сек
Ширина : 720 пикселей
Высота : 384 пикселя
Соотношение сторон : 1,85:1
Частота кадров : 24,000 кадра/сек
Цветовое пространство : YUV
Субдискретизация насыщенности : 4:2:0
Битовая глубина : 8 бит
Тип развёртки : Прогрессивная
Метод сжатия : С потерями
Бит/(Пиксели*Кадры) : 0.349
Размер потока : 1,72 Гбайт (83%)
Библиотека кодирования : XviD 1.2.1 (UTC 2008-12-04)

Аудио
Идентификатор : 1
Формат : AC-3
Формат/Информация : Audio Coding 3
Расширение режима : CM (complete main)
Параметр Endianness формата : Big
Идентификатор кодека : 2000
Продолжительность : 1 ч. 45 м.
Вид битрейта : Постоянный
Битрейт : 448 Кбит/сек
Каналы : 6 каналов
Расположение каналов : Front: L C R, Side: L R, LFE
Частота : 48,0 КГц
Битовая глубина : 16 бит
Метод сжатия : С потерями
Размер потока : 340 Мбайт (16%)
Выравнивание : Разделение по промежуткам
Продолжительность промежутка : 42 мс. (1,00 видеокадр)
Время предзагрузки промежутка : 500 мс.

pb.wtf



Скачать Счастливые годы через торрент http://pic.kartinco.top/images/6/im8cj.jpg Скачать фильм Счастливые годы через торрент бесплантно в хорошем качестве Описание: Рим, 1974 год. Дарио, 10-летний сын Гвидо и Серены. Пары, которая оказывается в середине эмоционального кризиса. Семья Гвидо, ... 8.3 10 3
Торрент: Зарегистрирован [2014-03-16 18:01] · скачан: 10 раз
Статус: √ проверено
Размер: 2.06 GB
Как cкачать? Как скачать Счастливые годы через торрент | qTorrent

28-11-2019 20:33  

Отключить всю рекламу на сайте

    Дорогой пользователь! Огромная просьба, поблагодарите релизера, оцените раздачу и оставьте свои комментарий, если Вы скачали Счастливые годы через торрент бесплатно! Внесите свою лепту в развитие PiratBit!
    Комментировать посты могут только пользователи прошедшие не сложную регистрацию
    Показать сообщения:    

    Счастливые годы через торрент
    Скачать бесплатно Счастливые годы
    Счастливые годы скачать торрент
    Счастливые годы смотреть онлайн
    Cкачать фильм Счастливые годы бесплатно
    Счастливые годы скачать торрент в хорошем качестве
    Счастливые годы смотреть онлайн бесплатно в хорошем качестве


    Вы не можете начинать темы
    Вы не можете отвечать на сообщения
    Вы не можете редактировать свои сообщения
    Вы не можете удалять свои сообщения
    Вы не можете голосовать в опросах
    Вы не можете прикреплять файлы к сообщениям
    Вы можете скачивать файлы