Ссылка на приватное зеркало всего за 1$. Внимание количество ограничено!!!

iTunes

iTunes

iTunes

1

iTunes

iTunes

iTunes

iTunes

iTunes

30
pack

$ от Little Big

ВАЖНО

!!Акция!!

Alien_RageХит недели

RePack

Resident Evil 21

ИГРА 18+

pack

RePack

jed

!!Акция!!

Alien_Rage

RePack

fifa19

RePack

Assassins Creed: Odyssey

RePack

NEED FOR SPEED™ PAYBACK

4 сезон

9 сезон

Бесстыжие 9 сезон

Все сериалы

все сериалы на PB.wtf

RePack

FAR CRY 5
  

Прибежище / Haunt (Мак Картер / Mac Carter) [ 2013 , США , ужасы , WEB-DL720p-LQ ] VO (den904) pb.wtf

Прибежище через торрент pb.wtf

Размер: 2.29 GB | Добавлен: 6 лет 3 мес. назад | Торрент скачан:124 раза
Скачать  

17-03-2014 10:46 Прибежище Скачать торрент  

Прибежище / Haunt
Год выпуска: 2013
Страна: США
Жанр: ужасы
Продолжительность: 01:25:47
Перевод: Любительский (одноголосый)(den904)
Субтитры: Русскиt (Вшитые отключаемые)

Режиссер: Мак Картер / Mac Carter
Сценарий: Эндрю Баррер / Andrew Barrer
Продюсер: Билл Блок / Bill Block, Пол Хэнсон / Paul Hanson, Антон Лессин / Anton Lessine, Уилл Роуботэм / Will Rowbotham, Стивен Шнайдер / Steven Schneider
Оператор: Адам Мэрсден / Adam Marsden
Композитор: Райнхольд Хайль / Reinhold Heil

Лиана Либерато (Sam), Айони Скай (Emily Asher), Джеки Уивер (Janet Morello), Харрисон Джилбертсон (Evan), Даниэль Чачран (Sara Asher), Джен Броберг (Meredith), Келли Нунан (Real Estate Agent), Алин Андраде (Young Woman), Касия Ковальчук (Demon Creature), Себастьян Майкл Барр (Matthew Morello), Бренден Уитни (EMT), Мэгги Скотт (Youngest Morello Daughter)

Мировая премьера: 6 ноября 2013

Описание:Замкнутый подросток воодушевляется знакомством со своим новым соседом, и уже вместе парочка начинает исследовать дом с привидениями, который его семья накануне купила по неведению.

Рейтинг
imdb.com: 5.60 (361)
MPAA: R - Лицам до 17 лет обязательно присутствие взрослого

Качество: WEB-DL720p-LQ
Формат: MKV
Видео кодек: AVC
Аудио кодек: AC3
Видео: 3166 Кбит/сек, 1280*532 (2,40:1), в 23,976 кадра/сек, AVC
Аудио №1: Русский 192 Кбит/сек, 48,0 КГц, 16 бит, 2 канала, AC-3
Аудио №2: Английский 384 Кбит/сек, 48,0 КГц, 16 бит, 6 каналов, AC-3

Общее
Кол-во : 279
Кол-во потоков такого типа : 1
Тип потока : General
Тип потока : Общее
Идентификатор типа потока : 0
Inform : Matroska: 2,29 Гбайт, 1 ч. 25 м.
Уникальный идентификатор : 172014274174522381595900566463279684568
Уникальный идентификатор : 172014274174522381595900566463279684568 (0x8168BE809479DF5CA8DD3B6C27F65BD8)
Кол-во видеопотоков : 1
Кол-во аудиопотоков : 2
Кол-во текстовых потоков : 1
Кол-во потоков меню : 1
Video_Format_List : AVC
Video_Format_WithHint_List : AVC
Видеокодеки : AVC
Video_Language_List : English
Audio_Format_List : AC-3 / AC-3
Audio_Format_WithHint_List : AC-3 / AC-3
Аудиокодеки : AC3 / AC3
Audio_Language_List : Russian / English
Text_Format_List : UTF-8
Text_Format_WithHint_List : UTF-8
Текстовые кодеки : UTF-8
Text_Language_List : Russian
Полное имя : D:ФильмыПрибежище.mkv
Имя папки : D:Фильмы
Имя файла : Прибежище
Расширение : mkv
Формат : Matroska
Формат : Matroska
Формат/Ссылка : http://packs.matroska.org/
Формат/Используется в : mkv mk3d mka mks
Коммерческое название : Matroska
Версия формата : Version 4 / Version 2
Кодек : Matroska
Кодек : Matroska
Кодек/Ссылка : http://packs.matroska.org/
Кодек/Используется в : mkv mk3d mka mks
Размер файла : 2456428503
Размер файла : 2,29 Гбайт
Размер файла : 2 Гбайт
Размер файла : 2,3 Гбайт
Размер файла : 2,29 Гбайт
Размер файла : 2,288 Гбайт
Продолжительность : 5147584
Продолжительность : 1 ч. 25 м.
Продолжительность : 1 ч. 25 м. 47 с. 584 мс.
Продолжительность : 1 ч. 25 м.
Продолжительность : 01:25:47.584
Общий поток : 3817602
Общий поток : 3818 Кбит/сек
Размер потока : 48890879
Размер потока : 46,6 Мбайт (2%)
Размер потока : 47 Мбайт
Размер потока : 47 Мбайт
Размер потока : 46,6 Мбайт
Размер потока : 46,63 Мбайт
Размер потока : 46,6 Мбайт (2%)
Пропорции потока : 0.01990
Заголовок : Haunt
Название фильма : Haunt
Дата кодирования : UTC 2014-03-17 07:30:27
Дата файла : UTC 2014-03-17 10:24:34.546
Дата файла (местная) : 2014-03-17 17:24:34.546
Дата изменения файла : UTC 2014-03-17 10:19:36.637
Дата изменения файла (местная) : 2014-03-17 17:19:36.637
Программа кодирования : mkvmerge v6.8.0 ('Theme for Great Cities') 64bit built on Mar 2 2014 21:34:26
Библиотека кодирования : libebml v1.3.0 + libmatroska v1.4.1
Библиотека кодирования : libebml v1.3.0 + libmatroska v1.4.1

Видео
Кол-во : 251
Кол-во потоков такого типа : 1
Тип потока : Video
Тип потока : Видео
Идентификатор типа потока : 0
StreamOrder : 0
Inform : English, 3166 Кбит/сек, 1280*532 (2,40:1), в 23,976 кадра/сек, AVC (Main@L3.1) (2 Ref Frames)
Идентификатор : 1
Идентификатор : 1
Уникальный идентификатор : 17024928779142444969
Формат : AVC
Формат/Информация : Advanced Video Codec
Формат/Ссылка : http://developers.videolan.org/x264.html
Коммерческое название : AVC
Профиль формата : Main@L3.1
Настройки формата : 2 Ref Frames
Параметр CABAC формата : No
Параметр CABAC формата : Нет
Параметр ReFrames формата : 2
Параметр ReFrames формата : 2 кадра
Интернет-тип носителя : video/H264
Идентификатор кодека : V_MPEG4/ISO/AVC
Идентификатор кодека/Ссылка : http://ffdshow-tryout.sourceforge.net/
Кодек : V_MPEG4/ISO/AVC
Кодек : AVC
Кодек/Семейство : AVC
Кодек/Информация : Advanced Video Codec
Кодек/Ссылка : http://ffdshow-tryout.sourceforge.net/
Профиль кодека : Main@L3.1
Настройки кодека : 2 Ref Frames
Параметр CABAC кодека : No
Codec_Settings_RefFrames : 2
Продолжительность : 5147564
Продолжительность : 1 ч. 25 м.
Продолжительность : 1 ч. 25 м. 47 с. 564 мс.
Продолжительность : 1 ч. 25 м.
Продолжительность : 01:25:47.564
Битрейт : 3165632
Битрейт : 3166 Кбит/сек
Ширина : 1280
Ширина : 1280 пикселей
Высота : 532
Высота : 532 пикселя
Пропорции пикселя : 1.000
Соотношение сторон : 2.406
Соотношение сторон : 2,40:1
Режим частоты кадров : CFR
Режим частоты кадров : Постоянный
Частота кадров : 23.976
Частота кадров : 23,976 кадра/сек
Счётчик кадров : 123418
Разрешение : 8
Разрешение : 8 бит
Колориметрия : 4:2:0
Цветовое пространство : YUV
Субдискретизация насыщенности : 4:2:0
Битовая глубина : 8
Битовая глубина : 8 бит
Тип развёртки : Progressive
Тип развёртки : Прогрессивная
Переплетение : PPF
Переплетение : Прогрессивная
Бит/(Пиксели*Кадры) : 0.194
Задержка : 0
Задержка : 00:00:00.000
Задержка в оригинале : Container
Задержка в оригинале : Контейнер
Размер потока : 2036911576
Размер потока : 1,90 Гбайт (83%)
Размер потока : 2 Гбайт
Размер потока : 1,9 Гбайт
Размер потока : 1,90 Гбайт
Размер потока : 1,897 Гбайт
Размер потока : 1,90 Гбайт (83%)
Пропорции потока : 0.82922
Язык : en
Язык : English
Язык : English
Язык : en
Язык : eng
Язык : en
Default : Yes
Default : Да
Forced : No
Forced : Нет
Основные цвета : BT.709
Характеристики трансфера : BT.709
Коэффициенты матрицы : BT.709

Аудио #1
Кол-во : 237
Кол-во потоков такого типа : 2
Тип потока : Audio
Тип потока : Аудио
Идентификатор типа потока : 0
Позиция идентификатора типа потока : 1
StreamOrder : 1
Inform : Russian, 192 Кбит/сек, 48,0 КГц, 16 бит, 2 канала, AC-3
Идентификатор : 2
Идентификатор : 2
Уникальный идентификатор : 9121313267628212379
Формат : AC-3
Формат/Информация : Audio Coding 3
Коммерческое название : AC-3
Расширение режима : CM (complete main)
Параметр Endianness формата : Big
Идентификатор кодека : A_AC3
Кодек : AC3
Кодек : AC3
Кодек/Семейство : AC3
Кодек/Информация : Dolby AC3
Продолжительность : 5147584
Продолжительность : 1 ч. 25 м.
Продолжительность : 1 ч. 25 м. 47 с. 584 мс.
Продолжительность : 1 ч. 25 м.
Продолжительность : 01:25:47.584
Вид битрейта : CBR
Вид битрейта : Постоянный
Битрейт : 192000
Битрейт : 192 Кбит/сек
Каналы : 2
Каналы : 2 канала
Расположение каналов : Front: L R
Расположение каналов : 2/0/0
Частота : 48000
Частота : 48,0 КГц
Количество образцов : 247084032
Разрешение : 16
Разрешение : 16 бит
Битовая глубина : 16
Битовая глубина : 16 бит
Метод сжатия : Lossy
Метод сжатия : С потерями
Задержка : 0
Задержка : 00:00:00.000
Задержка в оригинале : Container
Задержка в оригинале : Контейнер
Задержка видео : 0
Задержка видео : 0
Размер потока : 123542016
Размер потока : 118 Мбайт (5%)
Размер потока : 118 Мбайт
Размер потока : 118 Мбайт
Размер потока : 118 Мбайт
Размер потока : 117,8 Мбайт
Размер потока : 118 Мбайт (5%)
Пропорции потока : 0.05029
Заголовок : den904
Язык : ru
Язык : Russian
Язык : Russian
Язык : ru
Язык : rus
Язык : ru
Default : Yes
Default : Да
Forced : No
Forced : Нет
dsurmod : 0
dialnorm : -31
dialnorm/String : -31 dB
compr : -0.28
compr/String : -0.28 dB
bsid : 4
dialnorm_Average : -31
dialnorm_Average/String : -31 dB
dialnorm_Minimum : -31
dialnorm_Minimum/String : -31 dB
dialnorm_Maximum : -31
dialnorm_Maximum/String : -31 dB
dialnorm_Count : 2
compr_Average : -0.28
compr_Average/String : -0.28 dB
compr_Minimum : -0.28
compr_Minimum/String : -0.28 dB
compr_Maximum : -0.28
compr_Maximum/String : -0.28 dB
compr_Count : 2

Аудио #2
Кол-во : 236
Кол-во потоков такого типа : 2
Тип потока : Audio
Тип потока : Аудио
Идентификатор типа потока : 1
Позиция идентификатора типа потока : 2
StreamOrder : 2
Inform : English, 384 Кбит/сек, 48,0 КГц, 16 бит, 6 каналов, AC-3
Идентификатор : 3
Идентификатор : 3
Уникальный идентификатор : 8092610373239866010
Формат : AC-3
Формат/Информация : Audio Coding 3
Коммерческое название : AC-3
Расширение режима : CM (complete main)
Параметр Endianness формата : Big
Идентификатор кодека : A_AC3
Кодек : AC3
Кодек : AC3
Кодек/Семейство : AC3
Кодек/Информация : Dolby AC3
Продолжительность : 5147584
Продолжительность : 1 ч. 25 м.
Продолжительность : 1 ч. 25 м. 47 с. 584 мс.
Продолжительность : 1 ч. 25 м.
Продолжительность : 01:25:47.584
Вид битрейта : CBR
Вид битрейта : Постоянный
Битрейт : 384000
Битрейт : 384 Кбит/сек
Каналы : 6
Каналы : 6 каналов
Расположение каналов : Front: L C R, Side: L R, LFE
Расположение каналов : 3/2/0.1
Частота : 48000
Частота : 48,0 КГц
Количество образцов : 247084032
Разрешение : 16
Разрешение : 16 бит
Битовая глубина : 16
Битовая глубина : 16 бит
Метод сжатия : Lossy
Метод сжатия : С потерями
Задержка : 0
Задержка : 00:00:00.000
Задержка в оригинале : Container
Задержка в оригинале : Контейнер
Задержка видео : 0
Задержка видео : 0
Размер потока : 247084032
Размер потока : 236 Мбайт (10%)
Размер потока : 236 Мбайт
Размер потока : 236 Мбайт
Размер потока : 236 Мбайт
Размер потока : 235,6 Мбайт
Размер потока : 236 Мбайт (10%)
Пропорции потока : 0.10059
Язык : en
Язык : English
Язык : English
Язык : en
Язык : eng
Язык : en
Default : No
Default : Нет
Forced : No
Forced : Нет
dialnorm : -27
dialnorm/String : -27 dB
compr : -0.28
compr/String : -0.28 dB
bsid : 8
dialnorm_Average : -27
dialnorm_Average/String : -27 dB
dialnorm_Minimum : -27
dialnorm_Minimum/String : -27 dB
dialnorm_Maximum : -27
dialnorm_Maximum/String : -27 dB
dialnorm_Count : 2
compr_Average : -0.28
compr_Average/String : -0.28 dB
compr_Minimum : -0.28
compr_Minimum/String : -0.28 dB
compr_Maximum : -0.28
compr_Maximum/String : -0.28 dB
compr_Count : 2

Текст
Кол-во : 192
Кол-во потоков такого типа : 1
Тип потока : Text
Тип потока : Текст
Идентификатор типа потока : 0
StreamOrder : 3
Inform : Russian, UTF-8
Идентификатор : 4
Идентификатор : 4
Уникальный идентификатор : 12869223541294121896
Формат : UTF-8
Коммерческое название : UTF-8
Идентификатор кодека : S_TEXT/UTF8
Идентификатор кодека/Информация : UTF-8 Plain Text
Кодек : S_TEXT/UTF8
Кодек : UTF-8
Кодек/Информация : UTF-8 Plain Text
Язык : ru
Язык : Russian
Язык : Russian
Язык : ru
Язык : rus
Язык : ru
Default : No
Default : Нет
Forced : No
Forced : Нет

Меню
Кол-во : 82
Кол-во потоков такого типа : 1
Тип потока : Menu
Тип потока : Меню
Идентификатор типа потока : 0
Chapters_Pos_Begin : 73
Chapters_Pos_End : 82
00:00:00.000 : en:Chapter 1
00:13:22.000 : en:Chapter 2
00:22:58.000 : en:Chapter 3
00:32:54.000 : en:Chapter 4
00:43:44.000 : en:Chapter 5
00:53:51.000 : en:Chapter 6
01:04:54.000 : en:Chapter 7
01:13:28.000 : en:Chapter 8
01:21:08.000 : en:Chapter 9





pb.wtf



Скачать Прибежище через торрент http://pic.kartinco.top/images/6/d5ibr.jpg Скачать фильм Прибежище через торрент бесплантно в хорошем качестве Описание:Замкнутый подросток воодушевляется знакомством со своим новым соседом, и уже вместе парочка начинает исследовать дом с ... 10 10 3
Торрент: Зарегистрирован [2014-03-17 10:46] · скачан: 124 раз
Статус: T временная
Размер: 2.29 GB
Как cкачать? Как скачать Прибежище через торрент | qTorrent

% Раздел Тема Автор DL S | L
T Фильмы 2013 [DVDrip, WEB-DLRip, HDrip] [ 1.37 GB ] Логово зверя / Прибежище / Haunt / Haunter [2013 HDRip ] / Чистый звук GEKADOL Скачать
1 | 0
Фильмы [HD 720p, 1080p] (Хороший звук DUB, MVO) [ 7.65 GB ] Логово зверя / Прибежище / Haunt [2013 BDRip 1080p ] Ворон Скачать
1 | 0
T Фильмы 2013 [DVDrip, WEB-DLRip, HDrip] [ 1.45 GB ] Логово зверя / Прибежище / Haunt / Haunter [2013 HDRip ] / Чистый звук Ворон Скачать
1 | 0
T Фильмы 2013 (Звук TS, Cam, VO, DVO) [ 1.34 GB ] Логово / Прибежище / Haunt [2013 WEB-DLRipЛюбительский [den904 DeadSno] Ворон Скачать
1 | 0

28-11-2019 20:33  

Отключить всю рекламу на сайте

    Дорогой пользователь! Огромная просьба, поблагодарите релизера, оцените раздачу и оставьте свои комментарий, если Вы скачали Прибежище через торрент бесплатно! Внесите свою лепту в развитие PiratBit!
    Комментировать посты могут только пользователи прошедшие не сложную регистрацию
    Показать сообщения:    

    Прибежище через торрент
    Скачать бесплатно Прибежище
    Прибежище скачать торрент
    Прибежище смотреть онлайн
    Cкачать фильм Прибежище бесплатно
    Прибежище скачать торрент в хорошем качестве
    Прибежище смотреть онлайн бесплатно в хорошем качестве


    Вы не можете начинать темы
    Вы не можете отвечать на сообщения
    Вы не можете редактировать свои сообщения
    Вы не можете удалять свои сообщения
    Вы не можете голосовать в опросах
    Вы не можете прикреплять файлы к сообщениям
    Вы можете скачивать файлы