Ссылка на приватное зеркало нашего сайта всего за 1$. Внимание количество ограничено!!!

2 сезон

iTunes

1 сезон

1

iTunes

iTunes

iTunes

1 сезон

RePack

30

ИГРА 18+

pack

ВАЖНО

!!Акция!!

Alien_RageХит недели

RePack

MK11
pack

Забери бонус

RePack

jed

!!Акция!!

Alien_Rage

RePack

fifa19

RePack

Assassins Creed: Odyssey

RePack

NEED FOR SPEED™ PAYBACK

4 сезон

9 сезон

Бесстыжие 9 сезон

Все сериалы

все сериалы на PB.wtf

RePack

FAR CRY 5
  

Кровавый ледник / Blutgletscher (Марвин Крен / Marvin Kren) [2013, Австрия, ужасы, HDRip,Любительский (одноголосый) [den904] pb.wtf

Кровавый ледник через торрент pb.wtf

Размер: 1.41 GB | Добавлен: 6 лет 7 мес. назад | Торрент скачан:229 раз
Скачать  

17-03-2014 11:12 Кровавый ледник Скачать торрент  

Кровавый ледник / Blutgletscher


  • Год выпуска:2013
  • Страна:Австрия
  • Жанр: ужасы
  • Продолжительность: 01:37:13
  • Перевод: Любительский (одноголосый) [den904]

  • Субтитры: Нет
  • Режиссер:Марвин Крен / Marvin Kren
  • В ролях:

    Герхард Либманн (Janek), Эдита Маловчич (Tanja), Бригитта Крен (Ministerin Bodicek), Santos (Tinnie), Хилле Бизелер (Birte), Peter Knaack (Falk), Феликс Ромер (Harald), Вольфганг Пампель (Bert Krakauer), Murathan Muslu (Luca), Михаэль Фуйт (Urs), Адина Веттер (Irene), Коко Хюмер (Geli)
    • Описание:
      События фильма развернутся в Альпах, где расположилась климатическая станция, на которой со своими коллегами работает техник Янек. Накануне приезда туда новой группы ученых, персонал станции сталкивается с необычным явлением - из ледника начинает сочиться странная жидкость, под воздействием которой все животные начинают мутировать и нападать на людей. Станция превращается в своеобразную крепость для выживших, и все бы хорошо, но позже выясняется, что и люди так же подверглись заражению...

    Мировая премьера:6 сентября 2013
    • Качество:HDRip
    • Формат:AVI
    • Видео кодек: XviD
    • Аудио кодек:AC3
    • Видео: XviD, 720x304 (2.35:1), 1416 kbps, 24 fps, 0,270 bpp
    • Аудио №1: AC3 / 5.1 / 48 kHz / 384 kbps / 16 bit(русский)
      Аудио №2: AC3 / 2.0 / 48 kHz / 256 kbps / 16 bit(немецкий)


    Код:

    General
    Complete name                            : D:ТорентыKrovavyj.lednik.2013.L1.HDRip..avi
    Format                                   : AVI
    Format/Info                              : Audio Video Interleave
    File size                                : 1.41 GiB
    Duration                                 : 1h 37mn
    Overall bit rate                         : 2 071 Kbps
    Writing application                      : VirtualDubMod 1.5.10.2 (build 2540/release)
    Writing library                          : VirtualDubMod build 2540/release

    Video
    ID                                       : 0
    Format                                   : MPEG-4 Visual
    Format profile                           : Advanced Simple@L5
    Format settings, BVOP                    : 2
    Format settings, QPel                    : No
    Format settings, GMC                     : No warppoints
    Format settings, Matrix                  : Default (H.263)
    Muxing mode                              : Packed bitstream
    Codec ID                                 : XVID
    Codec ID/Hint                            : XviD
    Duration                                 : 1h 37mn
    Bit rate                                 : 1 416 Kbps
    Width                                    : 720 pixels
    Height                                   : 304 pixels
    Display aspect ratio                     : 2.35:1
    Frame rate                               : 24.000 fps
    Color space                              : YUV
    Chroma subsampling                       : 4:2:0
    Bit depth                                : 8 bits
    Scan type                                : Progressive
    Compression mode                         : Lossy
    Bits/(Pixel*Frame)                       : 0.270
    Stream size                              : 985 MiB (68%)
    Writing library                          : XviD 64

    Audio #1
    ID                                       : 1
    Format                                   : AC-3
    Format/Info                              : Audio Coding 3
    Mode extension                           : CM (complete main)
    Codec ID                                 : 2000
    Duration                                 : 1h 37mn
    Bit rate mode                            : Constant
    Bit rate                                 : 384 Kbps
    Channel(s)                               : 6 channels
    Channel positions                        : Front: L C R, Side: L R, LFE
    Sampling rate                            : 48.0 KHz
    Bit depth                                : 16 bits
    Compression mode                         : Lossy
    Stream size                              : 267 MiB (19%)
    Alignment                                : Split accross interleaves
    Interleave, duration                     : 42 ms (1.00 video frame)
    Interleave, preload duration             : 500 ms

    Audio #2
    ID                                       : 2
    Format                                   : AC-3
    Format/Info                              : Audio Coding 3
    Mode extension                           : CM (complete main)
    Codec ID                                 : 2000
    Duration                                 : 1h 37mn
    Bit rate mode                            : Constant
    Bit rate                                 : 256 Kbps
    Channel(s)                               : 2 channels
    Channel positions                        : Front: L R
    Sampling rate                            : 48.0 KHz
    Bit depth                                : 16 bits
    Compression mode                         : Lossy
    Stream size                              : 178 MiB (12%)
    Alignment                                : Split accross interleaves
    Interleave, duration                     : 42 ms (1.00 video frame)
    Interleave, preload duration             : 500 ms

    Скриншоты:

    Трейлеры к фильмам [2014]
    © Оформление by Raven pb.wtf



  • Скачать Кровавый ледник через торрент http://i2.imageban.ru/out/2014/03/17/00a12ffa82a010cd26ff11b02b768177.jpg Скачать фильм Кровавый ледник через торрент бесплантно в хорошем качестве Описание:События фильма развернутся в Альпах, где расположилась климатическая станция, на которой со своими коллегами работает техник Янек. ... 10 10 9
    Торрент: Зарегистрирован [2014-03-17 11:12] · скачан: 229 раз
    Статус: T временная
    Размер: 1.41 GB
    Как cкачать? Как скачать Кровавый ледник через торрент | qTorrent

    28-11-2019 20:33  

    Отключить всю рекламу на сайте

    18-03-2014 19:53 Кровавый ледник Скачать торрент  

    Нормальный фильмец)pb.wtf



    19-03-2014 16:02 Кровавый ледник Скачать торрент  

    А будет ли он с многоголосым переводом?pb.wtf



      Дорогой пользователь! Огромная просьба, поблагодарите релизера, оцените раздачу и оставьте свои комментарий, если Вы скачали Кровавый ледник через торрент бесплатно! Внесите свою лепту в развитие PiratBit!
      Комментировать посты могут только пользователи прошедшие не сложную регистрацию
      Показать сообщения:    

      Кровавый ледник через торрент
      Скачать бесплатно Кровавый ледник
      Кровавый ледник скачать торрент
      Кровавый ледник смотреть онлайн
      Cкачать фильм Кровавый ледник бесплатно
      Кровавый ледник скачать торрент в хорошем качестве
      Кровавый ледник смотреть онлайн бесплатно в хорошем качестве


      Вы не можете начинать темы
      Вы не можете отвечать на сообщения
      Вы не можете редактировать свои сообщения
      Вы не можете удалять свои сообщения
      Вы не можете голосовать в опросах
      Вы не можете прикреплять файлы к сообщениям
      Вы можете скачивать файлы