новый адрес
Ссылка на приватное зеркало всего за 1$. Внимание количество ограничено!!!

iTunes

1+1

iTunes

мы

iTunes

1

iTunes

Чернобыль

iTunes

Ральф против интернета

Лицензия

ПШазам

Лицензия

Оно 2

Лицензия

30
pack

Вам бонус

ВАЖНО

!!Акция!!

Alien_RageХит недели

RePack

Resident Evil 21

ИГРА 18+

pack

RePack

jed

!!Акция!!

Alien_Rage

RePack

fifa19

RePack

Assassins Creed: Odyssey

RePack

NEED FOR SPEED™ PAYBACK

3 сезон

9 сезон

Бесстыжие 9 сезон

Все сериалы

все сериалы на PB.wtf

RePack

FAR CRY 5
Ребята, катастрофически не хватает 1900р. для оплаты серверов за Октябрь (всвязи с блокировками трафик упал в 3 раза), 1-2р., выручайте.
  

После мрака свет / Post Tenebras Lux (Карлос Рейгадас / Carlos Reygadas) [2012, Мексика, Франция, Нидерланды, Германия, драма, HDRip,Профессиональный (многоголосый, закадровый) [НТВ+] pb.wtf

После мрака свет через торрент pb.wtf

Размер: 1.46 GB | Добавлен: 5 лет 8 мес. назад | Торрент скачан:479 раз
Скачать  

17-03-2014 18:20 После мрака свет Скачать торрент  

После мрака свет / Post Tenebras Lux

«Включите все органы чувств»

  • Год выпуска:2012
  • Страна:Мексика, Франция, Нидерланды, Германия
  • Жанр: драма

  • Продолжительность: 01:54:44
  • Перевод: Профессиональный (многоголосый, закадровый) [НТВ+]

  • Субтитры: Нет
  • Режиссер:Карлос Рейгадас / Carlos Reygadas
  • В ролях:

    Рут Рейгадас (Rut), Митси Ферран (Mujer dormida), Хоаким Чардонненс (Hombre dormido), Андер Верес (El niГ±o), Торрес (El Siete), Наталиа Асеведо (Natalia), Адольфо Хименес Кастро (Juan), Элизар Рейгадас (Eleazar), Хосе Альберто Санчес (El Jarro)
    • Описание:
      Хуан и Наталия - классическая пара из Латинской Америки с двумя чудесными маленькими детьми. Они покидают Европу, оставляя в прошлом богемные тусовки, эротические эксперименты и привычный им социум - ради тихой и спокойной семейной жизни на родине, в Мексике, в их уединенном доме в горах. Нанимая строительную бригаду из местных жителей, чтоб привести дом в порядок, супруги неожиданно встречают среди них непримиримого врага.

    Мировая премьера:24 мая 2012
    • Качество:HDRip
    • Формат:AVI
    • Видео кодек: XviD
    • Аудио кодек:AC3
    • Видео: XviD, 720x544 (4:3), 1619 kbps, 24 fps, 0,172 bpp
    • Аудио: AC3 / 2.0 / 48 kHz / 192 kbps / 16 bit


    Код:

    General
    Complete name                            : D:ТорентыPosle.mraka.svet.2012.P.HDRip.1.46Gb.avi
    Format                                   : AVI
    Format/Info                              : Audio Video Interleave
    File size                                : 1.46 GiB
    Duration                                 : 1h 54mn
    Overall bit rate                         : 1 821 Kbps
    Writing application                      : VirtualDubMod 1.5.10.2 (build 2540/release)
    Writing library                          : VirtualDubMod build 2540/release

    Video
    ID                                       : 0
    Format                                   : MPEG-4 Visual
    Format profile                           : Advanced Simple@L5
    Format settings, BVOP                    : 2
    Format settings, QPel                    : No
    Format settings, GMC                     : No warppoints
    Format settings, Matrix                  : Default (MPEG)
    Codec ID                                 : XVID
    Codec ID/Hint                            : XviD
    Duration                                 : 1h 54mn
    Bit rate                                 : 1 620 Kbps
    Width                                    : 720 pixels
    Height                                   : 544 pixels
    Display aspect ratio                     : 4:3
    Frame rate                               : 24.000 fps
    Color space                              : YUV
    Chroma subsampling                       : 4:2:0
    Bit depth                                : 8 bits
    Scan type                                : Progressive
    Compression mode                         : Lossy
    Bits/(Pixel*Frame)                       : 0.172
    Stream size                              : 1.30 GiB (89%)
    Writing library                          : XviD 1.2.1 (UTC 2008-12-04)

    Audio
    ID                                       : 1
    Format                                   : AC-3
    Format/Info                              : Audio Coding 3
    Mode extension                           : CM (complete main)
    Codec ID                                 : 2000
    Duration                                 : 1h 54mn
    Bit rate mode                            : Constant
    Bit rate                                 : 192 Kbps
    Channel(s)                               : 2 channels
    Channel positions                        : Front: L R
    Sampling rate                            : 48.0 KHz
    Bit depth                                : 16 bits
    Compression mode                         : Lossy
    Stream size                              : 158 MiB (11%)
    Alignment                                : Split accross interleaves
    Interleave, duration                     : 42 ms (1.00 video frame)
    Interleave, preload duration             : 500 ms

    Скриншоты:

    Трейлеры к фильмам [2014]
    © Оформление by Raven pb.wtf



  • Скачать После мрака свет через торрент http://i2.imageban.ru/out/2014/03/17/0ccb0213df82ba4055c90f546d8e49cc.jpg Скачать фильм После мрака свет через торрент бесплантно в хорошем качестве Описание:Хуан и Наталия - классическая пара из Латинской Америки с двумя чудесными маленькими детьми. Они покидают Европу, оставляя в ... 10 10 15
    Торрент: Зарегистрирован [2014-03-17 18:20] · скачан: 479 раз
    Статус: √ проверено
    Размер: 1.46 GB
    Как cкачать? Как скачать После мрака свет через торрент | qTorrent

    % Раздел Тема Автор DL S | L
    Арт-хаус и авторское кино [ 2.18 GB ] После мрака свет / Post Tenebras Lux [2012 Мексика Нидерланды Германия HDRip-AVC] DVO + Spa sokol_ok Скачать
    2 | 0
    Арт-хаус и авторское кино [ 1.46 GB ] После мрака свет / Post Tenebras Lux [2012 Мексика Нидерланды Германия HDRip-AVC] DVO sokol_ok Скачать
    2 | 0
    Отключить всю рекламу на сайте

    17-03-2014 20:07 После мрака свет Скачать торрент  

    наверное скачаю.. ибо есть подозрение, что в этом фильме тема сисек, наконец, раскрыта полностью..pb.wtf



    18-03-2014 04:12 После мрака свет Скачать торрент  

    Фуфель66 писал(а):

    наверное скачаю.. ибо есть подозрение, что в этом фильме тема сисек, наконец, раскрыта полностью..

    Качать нужно, потому что фильм получил золотую пальмовую ветвь. А за сиськами в другой раздел pb.wtf



      Дорогой пользователь! Огромная просьба, поблагодарите релизера, оцените раздачу и оставьте свои комментарий, если Вы скачали После мрака свет через торрент бесплатно! Внесите свою лепту в развитие PiratBit!
      Комментировать посты могут только пользователи прошедшие не сложную регистрацию
      Показать сообщения:    

      После мрака свет через торрент
      Скачать бесплатно После мрака свет
      После мрака свет скачать торрент
      После мрака свет смотреть онлайн
      Cкачать фильм После мрака свет бесплатно
      После мрака свет скачать торрент в хорошем качестве
      После мрака свет смотреть онлайн бесплатно в хорошем качестве


      Вы не можете начинать темы
      Вы не можете отвечать на сообщения
      Вы не можете редактировать свои сообщения
      Вы не можете удалять свои сообщения
      Вы не можете голосовать в опросах
      Вы не можете прикреплять файлы к сообщениям
      Вы можете скачивать файлы