Мега распродажа FORZA HORIZON 4 ULTIMATE+ВСЕ DLC+ОНЛАЙН всего за 499р. 349 руб. (супер цена). Внимание количество ограничено!!!

iTunes

1+1

iTunes

мы

iTunes

1

1 сезон

Чернобыль

1 сезон

Ральф против интернета

Лицензия

ПШазам

8 сезон

Игра престолов

Лицензия

30
pack

ВАЖНО

!!Акция!!

Alien_RageХит недели

RePack

Resident Evil 21

ИГРА 18+

pack

RePack

Metro:Exodus

!!Акция!!

Alien_Rage

RePack

fifa19

RePack

Assassins Creed: Odyssey

RePack

NEED FOR SPEED™ PAYBACK

3 сезон

9 сезон

Бесстыжие 9 сезон

Все сериалы

все сериалы на PB.wtf

RePack

FAR CRY 5
Ребята, катастрофически не хватает 2730р. для оплаты серверов за ИЮНЬ (всвязи с блокировками трафик упал в 3 раза), 1-2р., выручайте.
  

Охота Сезон: 1 / Серии: 4 из 4 (Стас Иванов) [2014 г., Остросюжетный фильм, детектив, криминал, SATRip] pb.wtf

Охота Сезон: 1 через торрент pb.wtf

Размер: 2.35 GB | Добавлен: 5 лет 4 мес. назад | Торрент скачан:1270 раз
Скачать  

17-03-2014 18:38 Охота Сезон: 1 Скачать торрент  

Охота Год выпуска: 2014
Страна: Россия ООО «Альянс Профи»
Жанр: Остросюжетный фильм, детектив, криминал,
Продолжительность: 00:44:00 серия

Режиссер: Стас Иванов

В ролях: Павел Трубинер, Михаил Гаврилов, Александр Константинов, Алексей Федькин, Анастасия Стежко, Полина Толстун, Владимир Устюгов, Павел Шингарёв, Валерий Соловьёв, Дмитрий Гусев, Александр Шатохин, Павел Попов, Арсен Атоян, Евгений Данчевский, Владимир Терещенко, Артём Яковлев, Сергей Кисса,

Описание: В управлении полиции провинциального городка служат три товарища, три капитана — Игорь Лещинский, Тимур Хлудов и Алексей Горбатенко. Когда маленький город потрясает громкое убийство известного антиквара, у которого к тому же похищена уникальная коллекция эстампов и гравюр XVIII века, полковник Рашников поручает это дело оперативной группе Лещинского. Полицейским удается выйти на след банды, задержать преступников и вернуть похищенное. Вот только организатор преступления погибает…Вскоре в городе появляется криминальный авторитет по кличке Шахматист, известный своим изощренным умом и неуловимостью. Друзья из охотников превращаются в жертв, ведь теперь охота ведется уже на них самих…

Качество: SATRip
Формат: AVI
Видео кодек: XviD
Аудио кодек: MP3
Видео: MPEG4, XviD, 720x416 (16:9), 25.000 fps, 1 795 Kbps (0.240 bit/pixel)
Аудио: MP3 , 48.0 KHz, 2 ch, 128 Kbps, CBR
скриншот   скриншот   скриншот   скриншот   скриншот   скриншот  

Код:

Формат                           : AVI
Формат/Информация                : Audio Video Interleave
Размер файла                     : 622 Мбайт
Продолжительность                : 45 м.
Общий поток                      : 1933 Кбит/сек
Программа кодирования            : VirtualDubMod 1.5.10.2 (build 2540/release)
Библиотека кодирования           : VirtualDub build 32507/release

Видео
Идентификатор                    : 0
Формат                           : MPEG-4 Visual
Профиль формата                  : Advanced Simple@L5
Параметр BVOP формата            : 2
Параметр QPel формата            : Нет
Параметр GMC формата             : Без точки перехода
Параметр матрицы формата         : Default (MPEG)
Идентификатор кодека             : XVID
Идентификатор кодека/Подсказка   : XviD
Продолжительность                : 45 м.
Битрейт                          : 1795 Кбит/сек
Ширина                           : 720 пикс.
Высота                           : 416 пикс.
Соотношение сторон               : 16:9
Частота кадров                   : 25,000 кадр/сек
Цветовое пространство            : YUV
Подвыборка цветности             : 4:2:0
Битовая глубина                  : 8 бит
Тип развёртки                    : Прогрессивная
Метод сжатия                     : С потерями
Бит/(Пиксели*Кадры)              : 0.240
Размер потока                    : 578 Мбайт (93%)
Библиотека кодирования           : XviD 64

Аудио
Идентификатор                    : 1
Формат                           : MPEG Audio
Версия формата                   : Version 1
Профиль формата                  : Layer 3
Режим                            : Joint stereo
Идентификатор кодека             : 55
Идентификатор кодека/Подсказка   : MP3
Продолжительность                : 45 м.
Вид битрейта                     : Постоянный
Битрейт                          : 128 Кбит/сек
Канал(ы)                         : 2 канала(ов)
Частота                          : 48,0 КГц
Метод сжатия                     : С потерями
Размер потока                    : 41,2 Мбайт (7%)
Выравнивание                     : Соединение по промежуткам
Продолжительность промежутка     : 40  мс. (1,00 видеокадр)
Время предзагрузки промежутка    : 504 ms[


pb.wtf



Скачать Охота Сезон: 1 через торрент http://pic.kartinco.top/images/6/y71ln.jpg Скачать фильм Охота Сезон: 1 через торрент бесплантно в хорошем качестве Описание: В управлении полиции провинциального городка служат три товарища, три капитана — Игорь Лещинский, Тимур Хлудов и Алексей ... 9.9 10 32
Info! Золотая раздача, скачанное не засчитывается.
Торрент: Зарегистрирован [2014-03-17 18:38] · скачан: 1 270 раз
Статус: √ проверено
Размер: 2.35 GB
Как cкачать? Как скачать Охота Сезон: 1 через торрент | qTorrent

% Раздел Тема Автор DL S | L
Наши сериалы [ 2.52 GB ] Джокер. Охота на зверя / Сезон-3 / Серии: 1-4 из 4 [2018 SATRip-AVC] aleksan55 Скачать
1 | 0


>> Регистрируемся здесь <<






Отзывы и комментарии о схеме читаем и пишем здесь: ---> Отзывы и комментарии о схеме

Новые благодарочки в телеграм довольных пользователей:
скриншот   скриншот   скриншот   скриншот   скриншот

21-03-2014 04:57 Охота Сезон: 1 Скачать торрент  

pb.wtf



24-03-2014 19:12 Охота Сезон: 1 Скачать торрент  

Фильм хорош...pb.wtf



    Дорогой пользователь! Огромная просьба, поблагодарите релизера, оцените раздачу и оставьте свои комментарий, если Вы скачали Охота Сезон: 1 через торрент бесплатно! Внесите свою лепту в развитие PiratBit!
    Комментировать посты могут только пользователи прошедшие не сложную регистрацию
    Показать сообщения:    

    Охота Сезон: 1 через торрент
    Скачать бесплатно Охота Сезон: 1
    Охота Сезон: 1 скачать торрент
    Охота Сезон: 1 смотреть онлайн
    Cкачать фильм Охота Сезон: 1 бесплатно
    Охота Сезон: 1 скачать торрент в хорошем качестве
    Охота Сезон: 1 смотреть онлайн бесплатно в хорошем качестве


    Вы не можете начинать темы
    Вы не можете отвечать на сообщения
    Вы не можете редактировать свои сообщения
    Вы не можете удалять свои сообщения
    Вы не можете голосовать в опросах
    Вы не можете прикреплять файлы к сообщениям
    Вы можете скачивать файлы