2 сезон

iTunes

MVO

1

2 сезон

iTunes

iTunes

1 сезон

RePack

30

Ultimate

ВАЖНО

ИГРА 18+

pack

RePack

MK11
pack

Легкие деньги

RePack

jed

RePack

fifa19

RePack

RDR2

RePack

NEED FOR SPEED™ PAYBACK

4 сезон

9 сезон

Бесстыжие 9 сезон

Все сериалы

все сериалы на PB.wtf

RePack

FAR CRY 5

Anonymous, добрый вечер, мы не успеваем собрать деньги на оплату серверов за декабрь и январь, помогите нам пожалуйста в это трудное время. В качестве благодарности мы отключим Вам всю рекламу на сайте (укажите свой ник в строку Ваше имя)!

×
  
Magnet ссылка

Европа / Europa Report (Себастьян Кордеро / Sebastián Cordero) [2012, США, фантастика, триллер, HDRip,Профессиональный [Дубляж - Лицензия/ iTunes] pb.wtf

Европа через торрент pb.wtf

Раздают: 1 [ 0 KB/s ]
Размер: 1.37 GB | Добавлен: 6 лет 10 мес. назад | Торрент скачан:3369 раз
Скачать  

17-03-2014 21:13 Европа Скачать торрент  

Европа / Europa Report

«Fear. Sacrifice. Contact»

  • Год выпуска:2012
  • Страна:США
  • Жанр: фантастика, триллер

  • Продолжительность: 01:30:25
  • Перевод: Профессиональный [Дубляж - Лицензия/ iTunes]

  • Субтитры: Нет
  • Режиссер:Себастьян Кордеро / Sebastián Cordero
  • В ролях:

    Кристиан Камарго (Dr. Daniel Luxembourg), Анамария Маринка (Rosa Dasque), Микаэл Нюквист (Andrei Blok), Дэниэл Ву (William Xu), Каролина Выдра (Dr. Katya Petrovna), Шарлто Копли (James Corrigan), Эмбет Дэвидц (Dr. Samantha Unger), Дэн Фоглер (Dr. Sokolov), Исайя Уитлок мл. (Dr. Tarik Pamuk), Нил Тайсон (играет самого себя, хроника)
    • Описание:
      Фильм повествует о международной космической экспедиции к шестому спутнику Юпитера, которую снаряжает некая частная корпорация. Цель полёта - высадиться на поверхность Европы, в подлёдном океане которой учёные теоретически предполагают наличие жизни.

    Мировая премьера:15 июня 2013
    • Качество:HDRip
    • Формат:AVI
    • Видео кодек: XviD
    • Аудио кодек:AC3
    • Видео: XviD, 720x400 (16:9), 1771 kbps, 23,976 fps, 0,257 bpp
    • Аудио: AC3 / 5.1 / 48 kHz / 384 kbps / 16 bit


    Код:

    General
    Complete name                            : D:ТорентыEvropa.2013.D.HDRip.1400Mb.avi
    Format                                   : AVI
    Format/Info                              : Audio Video Interleave
    File size                                : 1.37 GiB
    Duration                                 : 1h 30mn
    Overall bit rate                         : 2 164 Kbps
    Writing application                      : VirtualDubMod 1.5.10.2 (build 2540/release)
    Writing library                          : VirtualDubMod build 2540/release

    Video
    ID                                       : 0
    Format                                   : MPEG-4 Visual
    Format profile                           : Advanced Simple@L5
    Format settings, BVOP                    : 2
    Format settings, QPel                    : No
    Format settings, GMC                     : No warppoints
    Format settings, Matrix                  : Custom
    Codec ID                                 : XVID
    Codec ID/Hint                            : XviD
    Duration                                 : 1h 30mn
    Bit rate                                 : 1 771 Kbps
    Width                                    : 720 pixels
    Height                                   : 400 pixels
    Display aspect ratio                     : 16:9
    Frame rate                               : 23.976 fps
    Color space                              : YUV
    Chroma subsampling                       : 4:2:0
    Bit depth                                : 8 bits
    Scan type                                : Progressive
    Compression mode                         : Lossy
    Bits/(Pixel*Frame)                       : 0.257
    Stream size                              : 1.12 GiB (82%)
    Writing library                          : XviD 1.2.1 (UTC 2008-12-04)

    Audio
    ID                                       : 1
    Format                                   : AC-3
    Format/Info                              : Audio Coding 3
    Mode extension                           : CM (complete main)
    Codec ID                                 : 2000
    Duration                                 : 1h 30mn
    Bit rate mode                            : Constant
    Bit rate                                 : 384 Kbps
    Channel(s)                               : 6 channels
    Channel positions                        : Front: L C R, Side: L R, LFE
    Sampling rate                            : 48.0 KHz
    Bit depth                                : 16 bits
    Compression mode                         : Lossy
    Stream size                              : 248 MiB (18%)
    Alignment                                : Split accross interleaves
    Interleave, duration                     : 42 ms (1.00 video frame)
    Interleave, preload duration             : 500 ms

    Скриншоты:

    Трейлеры к фильмам [2014]
    © Оформление by Raven pb.wtf



  • Скачать Европа через торрент http://i4.imageban.ru/out/2014/03/18/8216da81cced059257ad260742d1cc3e.jpg Скачать фильм Европа через торрент бесплантно в хорошем качестве Описание:Фильм повествует о международной космической экспедиции к шестому спутнику Юпитера, которую снаряжает некая частная корпорация. ... 9.8 10 78
    Info! Золотая раздача, скачанное не засчитывается.
    Торрент: Зарегистрирован [2014-03-17 21:13] · скачан: 3 369 раз
    Статус: √ проверено
    Размер: 1.37 GB
    Как cкачать? Как скачать Европа через торрент | UTorrent

    % Раздел Тема Автор DL S | L
    Фильмы 2012 [ 2.15 GB ] Европа / Europa Report [2012 BDRip-AVC] Dub potroks Скачать
    2 | 0
    Фильмы [HD 720p, 1080p] (Хороший звук DUB, MVO) [ 9.24 GB ] Европа / Europa Report [2013 BDRip 1080p] diletant Скачать
    1 | 0
    Фильмы [HD 720p, 1080p] (Хороший звук DUB, MVO) [ 5.46 GB ] Европа / Europa Report [2013 BDRip 720p] diletant Скачать
    1 | 0
    Фильмы (Blu-ray, BD-Remux, HDDVD) [ 15.71 GB ] Европа / Europa Report [2013 BD-Remux + Оригинал] Бумер Скачать
    1 | 0

    28-11-2019 20:33  

    Отключить всю рекламу на сайте

    18-03-2014 06:18 Европа Скачать торрент  

    посмотрим, спасибо за раздачуpb.wtf



    18-03-2014 09:01 Европа Скачать торрент  

    Каролина Выдра (Dr. Katya Petrovna) Должно быть шедевр. По крайней мере подбор актеров на высоте.pb.wtf



    20-03-2014 04:32 Европа Скачать торрент  

    Фильм не очень 3 из 10. Много глупых и тупых моментов.pb.wtf



    25-03-2014 18:40 Европа Скачать торрент  

    nic77 писал(а):

    Фильм не очень 3 из 10. Много глупых и тупых моментов.

    У янки большинство фильмов таких, что же удивляться!pb.wtf



    27-03-2014 09:20 Европа Скачать торрент  

    Говно полное-бред сумашедшегоpb.wtf



      Дорогой пользователь! Огромная просьба, поблагодарите релизера, оцените раздачу и оставьте свои комментарий, если Вы скачали Европа через торрент бесплатно! Внесите свою лепту в развитие PiratBit!
      Комментировать посты могут только пользователи прошедшие не сложную регистрацию
      Показать сообщения:    

      Европа через торрент
      Скачать бесплатно Европа
      Европа скачать торрент
      Европа смотреть онлайн
      Cкачать фильм Европа бесплатно
      Европа скачать торрент в хорошем качестве
      Европа смотреть онлайн бесплатно в хорошем качестве


      Вы не можете начинать темы
      Вы не можете отвечать на сообщения
      Вы не можете редактировать свои сообщения
      Вы не можете удалять свои сообщения
      Вы не можете голосовать в опросах
      Вы не можете прикреплять файлы к сообщениям
      Вы можете скачивать файлы