Ссылка на приватное зеркало нашего сайта всего за 1$. Внимание количество ограничено!!!

2 сезон

iTunes

1 сезон

1

iTunes

iTunes

iTunes

1 сезон

RePack

30

ИГРА 18+

pack

ВАЖНО

!!Акция!!

Alien_RageХит недели

RePack

MK11
pack

Забери бонус

RePack

jed

!!Акция!!

Alien_Rage

RePack

fifa19

RePack

Assassins Creed: Odyssey

RePack

NEED FOR SPEED™ PAYBACK

4 сезон

9 сезон

Бесстыжие 9 сезон

Все сериалы

все сериалы на PB.wtf

RePack

FAR CRY 5
  

Европа / Europa Report (Себастьян Кордеро / Sebastián Cordero) [2013 г., фантастика, триллер, BDRip 1080p] pb.wtf

Европа через торрент pb.wtf

Качают: 1 [ 0 KB/s ]
Размер: 9.24 GB | Добавлен: 6 лет 7 мес. назад | Торрент скачан:238 раз
Скачать  

18-03-2014 14:31 Европа Скачать торрент  

Европа / Europa Report«Fear. Sacrifice. Contact»
Год выпуска: 2013
Страна: США
Жанр: фантастика, триллер
Продолжительность: 01:30:25

  • Перевод: Профессиональный (Дубляж);
  • Русские субтитры: есть
  • Оригинальная аудиодорожка: Английская
  • Тип релиза: Лицензия / iTunes

Режиссер: Себастьян Кордеро / Sebastián Cordero
В ролях: Кристиан Камарго, Анамария Маринка, Микаэл Нюквист, Дэниэл Ву, Каролина Выдра, Шарлто Копли, Эмбет Дэвидц, Дэн Фоглер, Исайя Уитлок мл., Нил Тайсон
Описание: Фильм повествует о международной космической экспедиции к шестому спутнику Юпитера, которую снаряжает некая частная корпорация. Цель полёта — высадиться на поверхность Европы, в подлёдном океане которой учёные теоретически предполагают наличие жизни.

    Тип релиза: BDRip 1080p
  • Контейнер: MKV
  • Видео кодек: H.264 | Аудио кодек: AC-3, DTS
  • Видео: 1920x1080 at 23.976 fps, x264@L4.1, 2pass, ~12700 kbps avg
  • Аудио 1: Russian: 48 kHz, AC3, 3/2 (L,C,R,l,r) + LFE ch, ~384.00 kbps avg |Дубляж, iTunes Russia|
  • Аудио 2: English: 48 kHz/16-bit, DTS, 3/2 (L,C,R,l,r) + LFE ch, ~1536.00 kbps avg
  • Субтитры: Russian (Forced, iTunes), Russian (iTunes), English (Forced, iTunes), English (SDH)
  • Чаптеры: 12шт.


Общее
Уникальный идентификатор : 210507495520501094203216898844513517079 (0x9E5E44D78DC3D30E868C9C1A2377BE17)
Полное имя : D:torrentEuropa.Report.2013.1080p.BluRay.Rus.Eng.mkv
Формат : Matroska
Версия формата : Version 2
Размер файла : 9,24 Гбайт
Продолжительность : 1 ч. 30 м.
Общий поток : 14,6 Мбит/сек
Дата кодирования : UTC 2014-03-18 00:18:32
Программа кодирования : mkvmerge v3.4.0 ('Rapunzel') built on May 15 2010 09:38:20
Библиотека кодирования : libebml v0.8.0 + libmatroska v0.9.0

Видео
Идентификатор : 1
Формат : AVC
Формат/Информация : Advanced Video Codec
Профиль формата : High@L4.1
Параметр CABAC формата : Да
Параметр ReFrames формата : 4 кадра
Идентификатор кодека : V_MPEG4/ISO/AVC
Продолжительность : 1 ч. 30 м.
Битрейт : 12,7 Мбит/сек
Ширина : 1920 пикселей
Высота : 1080 пикселей
Соотношение сторон : 16:9
Режим частоты кадров : Постоянный
Частота кадров : 23,976 кадра/сек
Цветовое пространство : YUV
Субдискретизация насыщенности : 4:2:0
Битовая глубина : 8 бит
Тип развёртки : Прогрессивная
Бит/(Пиксели*Кадры) : 0.256
Размер потока : 7,86 Гбайт (85%)
Библиотека кодирования : x264 core 133 r2334 a3ac64b
Настройки программы : cabac=1 / ref=4 / deblock=1:-3:-3 / analyse=0x3:0x113 / me=umh / subme=11 / psy=1 / psy_rd=1.05:0.10 / mixed_ref=1 / me_range=32 / chroma_me=1 / trellis=2 / 8x8dct=1 / cqm=0 / deadzone=21,11 / fast_pskip=0 / chroma_qp_offset=-5 / threads=12 / lookahead_threads=2 / sliced_threads=0 / nr=0 / decimate=0 / interlaced=0 / bluray_compat=0 / constrained_intra=0 / bframes=8 / b_pyramid=2 / b_adapt=2 / b_bias=0 / direct=3 / weightb=1 / open_gop=0 / weightp=2 / keyint=250 / keyint_min=23 / scenecut=40 / intra_refresh=0 / rc_lookahead=50 / rc=2pass / mbtree=1 / bitrate=12740 / ratetol=1.0 / qcomp=0.75 / qpmin=0 / qpmax=69 / qpstep=4 / cplxblur=20.0 / qblur=0.5 / ip_ratio=1.20 / aq=1:0.80
Язык : English
Default : Да
Forced : Нет

Аудио #1
Идентификатор : 2
Формат : AC-3
Формат/Информация : Audio Coding 3
Расширение режима : CM (complete main)
Параметр Endianness формата : Big
Идентификатор кодека : A_AC3
Продолжительность : 1 ч. 30 м.
Вид битрейта : Постоянный
Битрейт : 384 Кбит/сек
Каналы : 6 каналов
Расположение каналов : Front: L C R, Side: L R, LFE
Частота : 48,0 КГц
Битовая глубина : 16 бит
Метод сжатия : С потерями
Размер потока : 248 Мбайт (3%)
Заголовок : AC3 5.1 @ 384 kbps - DUB, iTunes
Язык : Russian
Default : Да
Forced : Нет

Аудио #2
Идентификатор : 3
Формат : DTS
Формат/Информация : Digital Theater Systems
Режим : 16
Параметр Endianness формата : Big
Идентификатор кодека : A_DTS
Продолжительность : 1 ч. 30 м.
Вид битрейта : Постоянный
Битрейт : 1509 Кбит/сек
Каналы : 6 каналов
Расположение каналов : Front: L C R, Side: L R, LFE
Частота : 48,0 КГц
Битовая глубина : 24 бит
Метод сжатия : С потерями
Задержка видео : 11 мс.
Размер потока : 976 Мбайт (10%)
Заголовок : DTS 5.1 @ 1536 kbps
Язык : English
Default : Нет
Forced : Нет

Текст #1
Идентификатор : 4
Формат : UTF-8
Идентификатор кодека : S_TEXT/UTF8
Идентификатор кодека/Информация : UTF-8 Plain Text
Заголовок : Forced
Язык : Russian
Default : Да
Forced : Нет

Текст #2
Идентификатор : 5
Формат : UTF-8
Идентификатор кодека : S_TEXT/UTF8
Идентификатор кодека/Информация : UTF-8 Plain Text
Язык : Russian
Default : Нет
Forced : Нет

Текст #3
Идентификатор : 6
Формат : UTF-8
Идентификатор кодека : S_TEXT/UTF8
Идентификатор кодека/Информация : UTF-8 Plain Text
Заголовок : Forced
Язык : English
Default : Нет
Forced : Нет

Текст #4
Идентификатор : 7
Формат : UTF-8
Идентификатор кодека : S_TEXT/UTF8
Идентификатор кодека/Информация : UTF-8 Plain Text
Язык : English
Default : Нет
Forced : Нет

Меню
00:00:00.000 : :00:00:00.000
00:07:24.944 : :00:07:24.944
00:15:46.988 : :00:15:46.988
00:22:05.491 : :00:22:05.491
00:28:40.218 : :00:28:40.218
00:34:55.719 : :00:34:55.719
00:40:22.253 : :00:40:22.253
00:51:24.081 : :00:51:24.081
00:59:42.996 : :00:59:42.996
01:09:13.649 : :01:09:13.649
01:18:32.333 : :01:18:32.333
01:24:27.145 : :01:24:27.145


pb.wtf



Скачать Европа через торрент http://i57.fastpic.ru/big/2014/0318/d2/f5fbb0f18e5c98c4ca1ebad138fa4bd2.jpg Скачать фильм Европа через торрент бесплантно в хорошем качестве Описание: Фильм повествует о международной космической экспедиции к шестому спутнику Юпитера, которую снаряжает некая частная корпорация. ... 9 10 15
Info! Золотая раздача, скачанное не засчитывается.
Торрент: Зарегистрирован [2014-03-18 14:31] · скачан: 238 раз
Статус: √ проверено
Размер: 9.24 GB
Как cкачать? Как скачать Европа через торрент | qTorrent

% Раздел Тема Автор DL S | L
Фильмы 2013 [DVDrip, WEB-DLRip, HDrip] [ 1.37 GB ] Европа / Europa Report [2012 HDRip [ - / ] Ворон Скачать
1 | 0
Фильмы 2012 [ 2.15 GB ] Европа / Europa Report [2012 BDRip-AVC] Dub potroks Скачать
1 | 0
Фильмы [HD 720p, 1080p] (Хороший звук DUB, MVO) [ 5.46 GB ] Европа / Europa Report [2013 BDRip 720p] diletant Скачать
1 | 0
Фильмы (Blu-ray, BD-Remux, HDDVD) [ 15.71 GB ] Европа / Europa Report [2013 BD-Remux + Оригинал] Бумер Скачать
1 | 0

28-11-2019 20:33  

Отключить всю рекламу на сайте

18-03-2014 16:13 Европа Скачать торрент  

фигня полная,такое впечатление что где то на кухне снятоpb.wtf



19-03-2014 17:18 Европа Скачать торрент  

Хороший фильмpb.wtf



21-03-2014 08:46 Европа Скачать торрент  

А чего fps такой низкий - 23? На телике плавняк будет отсутствовать.pb.wtf



    Дорогой пользователь! Огромная просьба, поблагодарите релизера, оцените раздачу и оставьте свои комментарий, если Вы скачали Европа через торрент бесплатно! Внесите свою лепту в развитие PiratBit!
    Комментировать посты могут только пользователи прошедшие не сложную регистрацию
    Показать сообщения:    

    Европа через торрент
    Скачать бесплатно Европа
    Европа скачать торрент
    Европа смотреть онлайн
    Cкачать фильм Европа бесплатно
    Европа скачать торрент в хорошем качестве
    Европа смотреть онлайн бесплатно в хорошем качестве


    Вы не можете начинать темы
    Вы не можете отвечать на сообщения
    Вы не можете редактировать свои сообщения
    Вы не можете удалять свои сообщения
    Вы не можете голосовать в опросах
    Вы не можете прикреплять файлы к сообщениям
    Вы можете скачивать файлы