Ссылка на приватное зеркало нашего сайта всего за 1$. Внимание количество ограничено!!!

2 сезон

iTunes

1 сезон

1

iTunes

iTunes

iTunes

1 сезон

RePack

30

ИГРА 18+

pack

ВАЖНО

!!Акция!!

Alien_RageХит недели

RePack

MK11
pack

Забери бонус

RePack

jed

!!Акция!!

Alien_Rage

RePack

fifa19

RePack

Assassins Creed: Odyssey

RePack

NEED FOR SPEED™ PAYBACK

4 сезон

9 сезон

Бесстыжие 9 сезон

Все сериалы

все сериалы на PB.wtf

RePack

FAR CRY 5
  

Водоворот чужих желаний /1-4 серия из 4 (Вячеслав Лавров) [2013 , Россия , детектив , SATRip , Original] pb.wtf

Водоворот чужих желаний через торрент pb.wtf

Размер: 1.96 GB | Добавлен: 6 лет 7 мес. назад | Торрент скачан:148 раз
Скачать  

11-11-2013 04:52 Водоворот чужих желаний Скачать торрент  

Водоворот чужих желаний

Год выпуска: 2013
Страна: Россия
Выпущено: Star Media
Жанр: Детектив, мелодрама
Продолжительность: 4 x ~ 00:45:00
Перевод: Оригинальный


Режиссер: Вячеслав Лавров
В ролях: Алексей Секирин, Сергей Колешня, Александра Шевченко (Катя), Борис Тенин (Капитошин), Наталья Гудкова (Эмма), Сергей Тезов (Вотчин), Дмитрий Брусникин (Шмидт)

Описание: Макар пятнадцать лет назад потерял любимую девушку, но до сих пор не смирился с ее гибелью. Поэтому, случайно увидев по телевизору свидетельницу того давнего преступления, он решил во что бы то ни стало найти и покарать убийц... Возле Марьиного омута Николаю привиделась... красавица русалка! То ли наяву, то ли во сне она пообещала осуществить любую мечту, если он вырежет из дерева ее изображение...
Катя безумно любила своего мужа. Поэтому когда Артур сказал, что его хотят убить из-за долга, Катя беспрекословно согласилась уехать вместе с ним в Москву. Столица, как известно, слезам не верит, и найти приличную работу оказалось невероятно сложно. Кто бы мог подумать, что Кате поможет в этом... русалка!
Все мы мечтаем об исполнении своих желаний. Но редко задумываемся, что произойдет, если это вдруг случится - может оказаться, сбылись не наши желания, а чужие...

  • Качество: SATRip
  • Формат: AVI
  • Видео кодек: DivX 5
  • Аудио кодек: MP3
  • Видео: DivX 5, 720x368 (1.957), 1501 kbps, 25 fps, 0,227 bpp
  • Аудио: MP3 / 2.0 / 48 kHz / 128 kbps /
    Format : AVI
    Format/Info : Audio Video Interleave
    File size : 518 MiB
    Duration : 44mn 7s
    Overall bit rate : 1 642 Kbps
    Writing application : transcode-1.1.5

    Video
    ID : 0
    Format : MPEG-4 Visual
    Format settings, BVOP : Yes
    Format settings, QPel : No
    Format settings, GMC : No warppoints
    Format settings, Matrix : Default (H.263)
    Codec ID : DX50
    Codec ID/Hint : DivX 5
    Duration : 44mn 7s
    Bit rate : 1 501 Kbps
    Width : 720 pixels
    Height : 368 pixels
    Display aspect ratio : 1.957
    Frame rate : 25.000 fps
    Color space : YUV
    Chroma subsampling : 4:2:0
    Bit depth : 8 bits
    Scan type : Progressive
    Compression mode : Lossy
    Bits/(Pixel*Frame) : 0.227
    Stream size : 474 MiB (91%)
    Writing library : Intel(R) MPEG-4 encoder based on Intel(R) IPP 6.1 build 137.20[6.1.137.763]

    Audio
    ID : 1
    Format : MPEG Audio
    Format version : Version 1
    Format profile : Layer 3
    Mode : Joint stereo
    Mode extension : MS Stereo
    Codec ID : 55
    Codec ID/Hint : MP3
    Duration : 44mn 7s
    Bit rate mode : Constant
    Bit rate : 128 Kbps
    Channel(s) : 2 channels
    Sampling rate : 48.0 KHz
    Compression mode : Lossy
    Stream size : 40.4 MiB (8%)
    Alignment : Aligned on interleaves
    Interleave, duration : 24 ms (0.60 video frame)
    Interleave, preload duration : 48 ms
    Writing library : LAME3.98.2
    pb.wtf



  • Скачать Водоворот чужих желаний через торрент http://i2.imageban.ru/out/2013/11/11/a56c79c9f527685172d513f46e3fca67.png Скачать фильм Водоворот чужих желаний через торрент бесплантно в хорошем качестве Описание: Макар пятнадцать лет назад потерял любимую девушку, но до сих пор не смирился с ее гибелью. Поэтому, случайно увидев по ... 9.2 10 17
    Торрент: Зарегистрирован [2014-03-18 15:10] · скачан: 148 раз
    Статус: √ проверено
    Размер: 1.96 GB
    Как cкачать? Как скачать Водоворот чужих желаний через торрент | qTorrent

    28-11-2019 20:33  

    Отключить всю рекламу на сайте

    11-11-2013 13:38 Водоворот чужих желаний Скачать торрент  

    фильм муть конкретная,точно не мелодрамаpb.wtf



      Дорогой пользователь! Огромная просьба, поблагодарите релизера, оцените раздачу и оставьте свои комментарий, если Вы скачали Водоворот чужих желаний через торрент бесплатно! Внесите свою лепту в развитие PiratBit!
      Комментировать посты могут только пользователи прошедшие не сложную регистрацию
      Показать сообщения:    

      Водоворот чужих желаний через торрент
      Скачать бесплатно Водоворот чужих желаний
      Водоворот чужих желаний скачать торрент
      Водоворот чужих желаний смотреть онлайн
      Cкачать фильм Водоворот чужих желаний бесплатно
      Водоворот чужих желаний скачать торрент в хорошем качестве
      Водоворот чужих желаний смотреть онлайн бесплатно в хорошем качестве


      Вы не можете начинать темы
      Вы не можете отвечать на сообщения
      Вы не можете редактировать свои сообщения
      Вы не можете удалять свои сообщения
      Вы не можете голосовать в опросах
      Вы не можете прикреплять файлы к сообщениям
      Вы можете скачивать файлы