Ссылка на приватное зеркало нашего сайта всего за 1$. Внимание количество ограничено!!!

2 сезон

iTunes

1 сезон

1

iTunes

iTunes

iTunes

1 сезон

RePack

30

ИГРА 18+

pack

ВАЖНО

!!Акция!!

Alien_RageХит недели

RePack

MK11
pack

Забери бонус

RePack

jed

!!Акция!!

Alien_Rage

RePack

fifa19

RePack

Assassins Creed: Odyssey

RePack

NEED FOR SPEED™ PAYBACK

4 сезон

9 сезон

Бесстыжие 9 сезон

Все сериалы

все сериалы на PB.wtf

RePack

FAR CRY 5
  

Смерш / Серии: 1-4 из 4 (Зиновий Ройзман) [2007 г., Боевик, Военный, DVDRip] pb.wtf

Смерш через торрент pb.wtf

Размер: 1.84 GB | Добавлен: 6 лет 7 мес. назад | Торрент скачан:254 раза
Скачать  

09-03-2014 19:14 Смерш Скачать торрент  

Смерш
Год выпуска: 2007
Страна: Россия Централ Партнершип
Жанр: Боевик, Военный
Продолжительность: 4 х ~ 00:50:43

Режиссер: Зиновий Ройзман
Сценарий: Леонид Порохня, Дмитрий Иванов



В ролях: Владимир Егоров, Андрей Соколов, Антон Макарский, Светлана Устинова, Екатерина Редникова

Описание: 1945 год. Группа офицеров СМЕРШа едет в отпуск в Москву. По дороге они останавливаются в небольшом белорусском городке, где встречают старого друга, который просит их помощи в борьбе с безжалостной бандой, шантажирующей город. Профессионалы СМЕРшевцы оказывются втянуыми в череду драматических событий, где личные чувства идут вразрез с долгом, и противники играют не по правилам. Трагическое противостояние в конце концов выливается в поединок главных героев — капитана СМЕРШа и руководителя банды.

Качество: DVDRip
Формат: AVI
Видео кодек: DivX
Аудио кодек: MP3
Видео: DivX 6, 624x352, 25.00fps, 1 256 Kbps
Аудио: MPEG Audio Layer 3, 48000Hz, stereo, 128kbps
Релиз от: Sirota





General
Complete name : K:10 03 2014СмершSmersh_1.avi
Format : AVI
Format/Info : Audio Video Interleave
File size : 512 MiB
Duration : 51mn 21s
Overall bit rate : 1 394 Kbps
Writing application : VirtualDubMod 1.5.4.1 (build 2178/release)
Writing library : VirtualDubMod build 2178/release

Video
ID : 0
Format : MPEG-4 Visual
Format profile : Advanced Simple@L5
Format settings, BVOP : 2
Format settings, QPel : No
Format settings, GMC : No warppoints
Format settings, Matrix : Default (MPEG)
Codec ID : DIVX
Codec ID/Info : Project Mayo
Codec ID/Hint : DivX 4
Duration : 51mn 21s
Bit rate : 1 256 Kbps
Width : 624 pixels
Height : 352 pixels
Display aspect ratio : 16:9
Frame rate : 25.000 fps
Color space : YUV
Chroma subsampling : 4:2:0
Bit depth : 8 bits
Scan type : Progressive
Compression mode : Lossy
Bits/(Pixel*Frame) : 0.229
Stream size : 462 MiB (90%)
Writing library : XviD 1.0.3 (UTC 2004-12-20)

Audio
ID : 1
Format : MPEG Audio
Format version : Version 1
Format profile : Layer 3
Mode : Joint stereo
Mode extension : MS Stereo
Codec ID : 55
Codec ID/Hint : MP3
Duration : 51mn 21s
Bit rate mode : Constant
Bit rate : 128 Kbps
Channel(s) : 2 channels
Sampling rate : 48.0 KHz
Compression mode : Lossy
Stream size : 47.0 MiB (9%)
Alignment : Aligned on interleaves
Interleave, duration : 40 ms (1.00 video frame)
Interleave, preload duration : 504 ms

pb.wtf



Скачать Смерш через торрент http://pic.kartinco.top/images/6/gwzaq.jpg Скачать фильм Смерш через торрент бесплантно в хорошем качестве Описание: 1945 год. Группа офицеров СМЕРШа едет в отпуск в Москву. По дороге они останавливаются в небольшом белорусском городке, где ... 9.9 10 24
Info! Золотая раздача, скачанное не засчитывается.
Торрент: Зарегистрирован [2014-03-09 19:14] · скачан: 254 раз
Статус: √ проверено
Размер: 1.84 GB
Как cкачать? Как скачать Смерш через торрент | qTorrent

% Раздел Тема Автор DL S | L
Наши сериалы [ 2.7 GB ] Снайпер. Офицер СМЕРШ / Сезон: 1 / Серии: 1-4 из 4 [2020 Военный WEB-DLRip-AVC] bober100 Скачать
2 | 0
Наши сериалы [ 2.21 GB ] Снайпер. Офицер СМЕРШ / Серии: 1-4 из 4 [2020 военный WEBRip-AVC] aleksan55 Скачать
1 | 0
Наши сериалы [ 6.36 GB ] Снайпер. Офицер СМЕРШ / Сезон: 1 / Серии: 1-4 из 4 [2020 Военный WEB-DL 1080p] bober100 Скачать
3 | 0
Наши сериалы [ 3.47 GB ] Снайпер. Офицер СМЕРШ / Сезон: 1 / Серии: 1-4 из 4 [2020 Военный WEB-DL 720p] bober100 Скачать
3 | 0
Наши сериалы [ 2.34 GB ] Снайпер. Офицер СМЕРШ / Сезон: 1 / Серии: 1-4 из 4 [2020 Военный WEB-DLRip] bober100 Скачать
1 | 0


Последний раз редактировалось: lug30 (2014-03-09 19:46), всего редактировалось 1 раз

28-11-2019 20:33  

Отключить всю рекламу на сайте

09-03-2014 19:25 Смерш Скачать торрент  

трейлера меньше размером не нашел :smok:pb.wtf



09-03-2014 19:58 Смерш Скачать торрент  

lug30 писал(а):

Смерш

так то не трейлер а серия полная pb.wtf



09-03-2014 20:06 Смерш Скачать торрент  

Raven писал(а):

lug30 писал(а):

Смерш

так то не трейлер а серия полная

так оно и есть-2 серияpb.wtf



09-03-2014 23:50 Смерш Скачать торрент  

ты бы сразу выкинул бы все серии в трейлер :rofle:pb.wtf



13-11-2016 04:14 Смерш Скачать торрент  

Спасибоpb.wtf



13-11-2016 16:17 Смерш Скачать торрент  

Цитата:

Смерш / Серии: 1-4 из 4 (Зиновий Ройзман) [2007 г., Боевик, Военный, DVDRip]

ДАЙТЕ СКОРОСТИpb.wtf



    Дорогой пользователь! Огромная просьба, поблагодарите релизера, оцените раздачу и оставьте свои комментарий, если Вы скачали Смерш через торрент бесплатно! Внесите свою лепту в развитие PiratBit!
    Комментировать посты могут только пользователи прошедшие не сложную регистрацию
    Показать сообщения:    

    Смерш через торрент
    Скачать бесплатно Смерш
    Смерш скачать торрент
    Смерш смотреть онлайн
    Cкачать фильм Смерш бесплатно
    Смерш скачать торрент в хорошем качестве
    Смерш смотреть онлайн бесплатно в хорошем качестве


    Вы не можете начинать темы
    Вы не можете отвечать на сообщения
    Вы не можете редактировать свои сообщения
    Вы не можете удалять свои сообщения
    Вы не можете голосовать в опросах
    Вы не можете прикреплять файлы к сообщениям
    Вы можете скачивать файлы