Ссылка на приватное зеркало нашего сайта всего за 1$. Внимание количество ограничено!!!

2 сезон

iTunes

1 сезон

1

iTunes

iTunes

iTunes

1 сезон

RePack

30

ИГРА 18+

pack

ВАЖНО

!!Акция!!

Alien_RageХит недели

RePack

MK11
pack

Забери бонус

RePack

jed

!!Акция!!

Alien_Rage

RePack

fifa19

RePack

Assassins Creed: Odyssey

RePack

NEED FOR SPEED™ PAYBACK

4 сезон

9 сезон

Бесстыжие 9 сезон

Все сериалы

все сериалы на PB.wtf

RePack

FAR CRY 5
  

Внутри Льюина Дэвиса / Inside Llewyn Davis (Итан Коэн / Ethan Coen, Джоэл Коэн / Joel Coen) [2012, США,, , музыка, BDRip 1080p, [Дубляж / iTunes]от R.G. HD-Films pb.wtf

Внутри Льюина Дэвиса через торрент pb.wtf

Размер: 7.93 GB | Добавлен: 6 лет 7 мес. назад | Торрент скачан:187 раз
Скачать  

18-03-2014 20:17 Внутри Льюина Дэвиса Скачать торрент  

Внутри Льюина Дэвиса / Inside Llewyn Davis


  • Год выпуска:2013
  • Страна:США, Великобритания, Франция
  • Жанр: драма, музыка

  • Продолжительность: 01:44:34
  • Перевод: Профессиональный [Дубляж - Лицензия/ iTunes]

  • Субтитры: Нет
  • Режиссер:Итан Коэн / Ethan Coen, Джоэл Коэн / Joel Coen
  • В ролях:

    Оскар Айзек (Llewyn Davis), Кэри Маллиган (Jean), Итэн Филлипс (Mitch Gorfein), Робин Бартлетт (Lillian Gorfein), Джон Гудман (Roland Turner), Джастин Тимберлэйк (Jim), Макс Казелла (Pappi Corsicato), Гаррет Хедлунд (Johnny Five), Джерри Грэйсон (Mel Novikoff), Ф. Мюррэй Абрахам (Bud Grossman), Адам Драйвер (Al Cody), Джанин Серраллес (Joy)
    • Описание:
      Богемные кварталы Манхэттена и клубы табачного дыма, пыльные дороги Америки и гигантские тиражи винила... Нью-Йорк. Конец 50-х.
      Льюин Дэвис, талантливый певец и гитарист из Квинса, с трудом перебивается между выступлениями в клубах Гринвич-Виллиджа, редкими записями на радио. Без дома и денег, запутавшись в любви, почти потеряв связь с семьей, он странствует по жизни в поисках себя. И не находит. Все, что у него есть - это музыка. Удастся ли разгадать тайны его музыки? Что там, внутри Льюина Дэвиса?

    Мировая премьера:5 декабря 2012
    • Качество:BDRip 1080p
    • Формат:MKV
    • Видео кодек: AVC
    • Аудио кодек:DTS /AC3
    • Видео: AVC, 1920x1040 (16:9), 8964 kbps, 23,976 fps, 0,187 bpp
    • Аудио №1: AC3 / 5.1 / 48 kHz / 384 kbps / 16 bit
    • Аудио №2: английский / DTS / 5.1 / 48 kHz / 1510 kbps / 24 bit


    Код:

    General
    Unique ID                                : 178850707025916961129311954634964909254 (0x868D64AA4D581519B97963DFFF22BCC6)
    Complete name                            : D:ТорентыInside Llewyn Davis.1080p __Piratbit.net.mkv
    Format                                   : Matroska
    Format version                           : Version 4 / Version 2
    File size                                : 7.93 GiB
    Duration                                 : 1h 44mn
    Overall bit rate                         : 10.9 Mbps
    Movie name                               : Release for Piratbit.net_R.G. HD-Films
    Encoded date                             : UTC 2014-03-18 20:03:33
    Writing application                      : mkvmerge v6.4.1 ('Omega Point') built on Sep 16 2013 22:05:10
    Writing library                          : libebml v1.3.0 + libmatroska v1.4.1

    Video
    ID                                       : 1
    Format                                   : AVC
    Format/Info                              : Advanced Video Codec
    Format profile                           : High@L4.0
    Format settings, CABAC                   : Yes
    Format settings, ReFrames                : 4 frames
    Codec ID                                 : V_MPEG4/ISO/AVC
    Duration                                 : 1h 44mn
    Bit rate                                 : 8 964 Kbps
    Width                                    : 1 920 pixels
    Height                                   : 1 040 pixels
    Display aspect ratio                     : 16:9
    Frame rate                               : 23.976 fps
    Color space                              : YUV
    Chroma subsampling                       : 4:2:0
    Bit depth                                : 8 bits
    Scan type                                : Progressive
    Bits/(Pixel*Frame)                       : 0.187
    Stream size                              : 6.39 GiB (81%)
    Title                                    : Release for Piratbit.net_R.G. HD-Films
    Writing library                          : x264 core 142 r2389 956c8d8
    Encoding settings                        : cabac=1 / ref=4 / deblock=1:0:0 / analyse=0x3:0x133 / me=umh / subme=8 / psy=1 / psy_rd=1.00:0.00 / mixed_ref=1 / me_range=16 / chroma_me=1 / trellis=1 / 8x8dct=1 / cqm=0 / deadzone=21,11 / fast_pskip=0 / chroma_qp_offset=-2 / threads=18 / lookahead_threads=3 / sliced_threads=0 / nr=0 / decimate=1 / interlaced=0 / bluray_compat=0 / constrained_intra=0 / bframes=3 / b_pyramid=2 / b_adapt=2 / b_bias=0 / direct=3 / weightb=1 / open_gop=0 / weightp=2 / keyint=250 / keyint_min=23 / scenecut=40 / intra_refresh=0 / rc_lookahead=50 / rc=2pass / mbtree=1 / bitrate=8964 / ratetol=1.0 / qcomp=0.60 / qpmin=0 / qpmax=69 / qpstep=4 / cplxblur=20.0 / qblur=0.5 / ip_ratio=1.40 / aq=1:1.00
    Language                                 : Russian
    Default                                  : Yes
    Forced                                   : No

    Audio #1
    ID                                       : 2
    Format                                   : AC-3
    Format/Info                              : Audio Coding 3
    Mode extension                           : CM (complete main)
    Codec ID                                 : A_AC3
    Duration                                 : 1h 44mn
    Bit rate mode                            : Constant
    Bit rate                                 : 384 Kbps
    Channel(s)                               : 6 channels
    Channel positions                        : Front: L C R, Side: L R, LFE
    Sampling rate                            : 48.0 KHz
    Bit depth                                : 16 bits
    Compression mode                         : Lossy
    Stream size                              : 287 MiB (4%)
    Default                                  : No
    Forced                                   : No

    Audio #2
    ID                                       : 3
    Format                                   : DTS
    Format/Info                              : Digital Theater Systems
    Codec ID                                 : A_DTS
    Duration                                 : 1h 44mn
    Bit rate mode                            : Constant
    Bit rate                                 : 1 510 Kbps
    Channel(s)                               : 6 channels
    Channel positions                        : Front: L C R, Side: L R, LFE
    Sampling rate                            : 48.0 KHz
    Bit depth                                : 24 bits
    Compression mode                         : Lossy
    Stream size                              : 1.10 GiB (14%)
    Language                                 : English
    Default                                  : Yes
    Forced                                   : No

    Menu
    00:00:00.000                             : en:00:00:00.000
    00:06:51.703                             : en:00:06:51.703
    00:12:45.765                             : en:00:12:45.765
    00:19:14.653                             : en:00:19:14.653
    00:25:13.137                             : en:00:25:13.137
    00:33:35.055                             : en:00:33:35.055
    00:40:02.817                             : en:00:40:02.817
    00:47:30.806                             : en:00:47:30.806
    00:56:05.946                             : en:00:56:05.946
    01:00:08.313                             : en:01:00:08.313
    01:03:38.648                             : en:01:03:38.648
    01:13:12.930                             : en:01:13:12.930
    01:16:57.947                             : en:01:16:57.947
    01:22:59.600                             : en:01:22:59.600
    01:27:14.855                             : en:01:27:14.855
    01:33:03.661                             : en:01:33:03.661

    Скриншоты:


    Релиз подготовлен специально для Piratbit.net. Синхронизация звука и видео by Raven

    Трейлеры к фильмам [2014] pb.wtf



  • Скачать Внутри Льюина Дэвиса через торрент http://pic.kartinco.top/new/img/2014-06/03/j90n4onpk80dztfmzfzqs59xd.jpg Скачать фильм Внутри Льюина Дэвиса через торрент бесплантно в хорошем качестве Описание:Богемные кварталы Манхэттена и клубы табачного дыма, пыльные дороги Америки и гигантские тиражи винила... Нью-Йорк. Конец ... 10 10 9
    Info! Золотая раздача, скачанное не засчитывается.
    Торрент: Зарегистрирован [2014-03-18 20:17] · скачан: 187 раз
    Статус: √ проверено
    Размер: 7.93 GB
    Как cкачать? Как скачать Внутри Льюина Дэвиса через торрент | qTorrent



    Последний раз редактировалось: Ворон (2014-06-03 15:01), всего редактировалось 3 раз(а)

    28-11-2019 20:33  

    Отключить всю рекламу на сайте

    20-03-2014 12:28 Внутри Льюина Дэвиса Скачать торрент  

    Спасибо!!!pb.wtf



    12-02-2015 16:14 Внутри Льюина Дэвиса Скачать торрент  

    Поддайте скорости PLZpb.wtf



      Дорогой пользователь! Огромная просьба, поблагодарите релизера, оцените раздачу и оставьте свои комментарий, если Вы скачали Внутри Льюина Дэвиса через торрент бесплатно! Внесите свою лепту в развитие PiratBit!
      Комментировать посты могут только пользователи прошедшие не сложную регистрацию
      Показать сообщения:    

      Внутри Льюина Дэвиса через торрент
      Скачать бесплатно Внутри Льюина Дэвиса
      Внутри Льюина Дэвиса скачать торрент
      Внутри Льюина Дэвиса смотреть онлайн
      Cкачать фильм Внутри Льюина Дэвиса бесплатно
      Внутри Льюина Дэвиса скачать торрент в хорошем качестве
      Внутри Льюина Дэвиса смотреть онлайн бесплатно в хорошем качестве


      Вы не можете начинать темы
      Вы не можете отвечать на сообщения
      Вы не можете редактировать свои сообщения
      Вы не можете удалять свои сообщения
      Вы не можете голосовать в опросах
      Вы не можете прикреплять файлы к сообщениям
      Вы можете скачивать файлы