Присоединяйтесь к нам в Telegram!, здесь всегда актуальный адрес сайта, оперативная поддержка и многое другое!!

>

5.9

iTunes

7.4

iTunes

9.4

1 сезон

1

7.4

2 сезон

7.2

iTunes

7.3

1 сезон

13

6.1

iTunes

8.3

GOG

30

ULTIMATE

pack

9.9

Лицензия

ВАЖНО

ИГРА 18+

pack

7.3

RePack

MK11

7.7

RePack

jed

7.8

RePack

fifa19

8.5

RePack

RDR2

RePack

NEED FOR SPEED™ PAYBACK

5 сезон

9 сезон

Бесстыжие 9 сезон

Все сериалы

все сериалы на PB.wtf

RePack

FAR CRY 5

Anonymous, доброе утро, мы катастрофически не успеваем собрать деньги на оплату серверов, помогите нам пожалуйста 5,10,15р., для нас важна любая помощь . В качестве благодарности мы отключим Вам всю рекламу на сайте (укажите свой ник в строку Ваше имя)!

×
  
Magnet ссылка

Слушаем приятную музыку [2014 г., BDRip 720p] pb.wtf

Слушаем приятную музыку через торрент pb.wtf

Размер: 99 MB | Добавлен: 7 лет 8 мес. назад | Торрент скачан:105 раз
Смотреть онлайн Слушаем приятную музыку | Скачать    Ребята, помогите собрать деньги на оплату серверов!!!

18-03-2014 22:22 Слушаем приятную музыку Скачать торрент  

Слушаем приятную музыку
Год выпуска: 2014
Страна: Russia
Продолжительность: 3mn 38s
Жанр:инструментал
Режиссер: Я

Описание: Смотрим на расслабоне
Слушаем приятную музыку

Качество: BDRip 720p
Формат: MP4
Видео кодек: AVC
Аудио кодек: AAC
Видео: AVC, 1280x720(16x9), 29.970 fps, 3 587 Kbps
Аудио#1: AAC, 44100Hz stereo, 192 Kbps
скриншот  

Video
ID : 1
Format : AVC
Format/Info : Advanced Video Codec
Format profile : Main@L4.1
Format settings, CABAC : Yes
Format settings, ReFrames : 2 frames
Codec ID : avc1
Codec ID/Info : Advanced Video Coding
Duration : 3mn 38s
Bit rate mode : Variable
Bit rate : 3 587 Kbps
Width : 1 280 pixels
Height : 720 pixels
Display aspect ratio : 16:9
Frame rate mode : Constant
Frame rate : 29.970 fps
Resolution : 24 bits
Colorimetry : 4:2:0
Scan type : Progressive
Bits/(Pixel*Frame) : 0.130
Stream size : 93.5 MiB (95%)
Encoded date : UTC 2014-03-17 21:39:18
Tagged date : UTC 2014-03-17 21:39:18

Audio
ID : 2
Format : AAC
Format/Info : Advanced Audio Codec
Format version : Version 4
Format profile : LC
Format settings, SBR : No
Codec ID : 40
Duration : 3mn 38s
Bit rate mode : Constant
Bit rate : 192 Kbps
Channel(s) : 2 channels
Channel positions : L R
Sampling rate : 44.1 KHz
Resolution : 16 bits
Stream size : 4.92 MiB (5%)
Encoded date : UTC 2014-03-17 21:39:18
Tagged date : UTC 2014-03-17 21:39:18

pb.wtf



Скачать Слушаем приятную музыку через торрент https://pic1.kartinco.top/images/61/v76ps.jpg Скачать, смотреть онлайн Слушаем приятную музыку [2014 г., BDRip 720p] бесплантно в хорошем качестве Описание: Смотрим на расслабонеСлушаем приятную ... 8.2 10 5
Торрент: Зарегистрирован [2014-03-18 22:22] · скачан: 105 раз
Статус: √ проверено
Размер: 99 MB
Как cкачать? Как скачать Слушаем приятную музыку через торрент | UTorrent



Последний раз редактировалось: Night shift (2014-03-19 03:43), всего редактировалось 1 раз

28-11-2019 20:33  

Отключить всю рекламу на сайте

19-03-2014 01:27 Слушаем приятную музыку Скачать торрент  

Судя по скриншотам она вряд ли приятная... Воздержался..)pb.wtf



19-03-2014 08:57 Слушаем приятную музыку Скачать торрент  

скриншоты с "пункта назначения", если чё.... самые клевые эпизодыpb.wtf



    Дорогой пользователь! Огромная просьба, поблагодарите релизера, оцените раздачу и оставьте свои комментарий, если Вы скачали Слушаем приятную музыку через торрент бесплатно!
    Комментировать посты могут только пользователи прошедшие не сложную регистрацию
    Показать сообщения:    

    Слушаем приятную музыку через торрент
    Скачать бесплатно Слушаем приятную музыку
    Слушаем приятную музыку скачать торрент
    Слушаем приятную музыку смотреть онлайн
    Cкачать фильм Слушаем приятную музыку бесплатно
    Слушаем приятную музыку скачать торрент в хорошем качестве
    Слушаем приятную музыку смотреть онлайн бесплатно в хорошем качестве


    Вы не можете начинать темы
    Вы не можете отвечать на сообщения
    Вы не можете редактировать свои сообщения
    Вы не можете удалять свои сообщения
    Вы не можете голосовать в опросах
    Вы не можете прикреплять файлы к сообщениям
    Вы можете скачивать файлы