Присоединяйтесь к нам в Telegram!, здесь всегда актуальный адрес сайта, оперативная поддержка и многое другое!!

>

5.9

iTunes

7.4

iTunes

9.4

1 сезон

1

7.4

2 сезон

7.2

iTunes

7.3

1 сезон

13

6.1

iTunes

8.3

GOG

30

ULTIMATE

pack

9.9

Лицензия

ВАЖНО

ИГРА 18+

pack

7.3

RePack

MK11

7.7

RePack

jed

7.8

RePack

fifa19

8.5

RePack

RDR2

RePack

NEED FOR SPEED™ PAYBACK

5 сезон

9 сезон

Бесстыжие 9 сезон

Все сериалы

все сериалы на PB.wtf

RePack

FAR CRY 5

Anonymous, доброй ночи, мы катастрофически не успеваем собрать деньги на оплату серверов, помогите нам пожалуйста 5,10,15р., для нас важна любая помощь . В качестве благодарности мы отключим Вам всю рекламу на сайте (укажите свой ник в строку Ваше имя)!

×
  
Magnet ссылка

Сектор газа туман [2014 г., Punk Rock, BDRip 720p] pb.wtf

Сектор газа туман через торрент pb.wtf

Качают: 2 [ 0 KB/s ]
Размер: 101 MB | Добавлен: 7 лет 8 мес. назад | Торрент скачан:270 раз
Смотреть онлайн Сектор газа туман | Скачать    Ребята, помогите собрать деньги на оплату серверов!!!

19-03-2014 03:39 Сектор газа туман Скачать торрент  

Сектор газа туман
Год выпуска: 2014
Страна: Russia
Жанр: Punk Rock,
Продолжительность: 3mn 43s

Качество: BDRip 720p
Формат: MP4
Видео кодек: AVC
Аудио кодек: AAC
Видео: AVC, 1280x720(16x9), 29.970 fps, 3 587 Kbps
Аудио#1: AAC, 44100Hz stereo, 192 Kbps
скриншот  

Video
ID : 1
Format : AVC
Format/Info : Advanced Video Codec
Format profile : Main@L4.1
Format settings, CABAC : Yes
Format settings, ReFrames : 2 frames
Codec ID : avc1
Codec ID/Info : Advanced Video Coding
Duration : 3mn 43s
Bit rate mode : Variable
Bit rate : 3 569 Kbps
Width : 1 280 pixels
Height : 720 pixels
Display aspect ratio : 16:9
Frame rate mode : Constant
Frame rate : 29.970 fps
Resolution : 24 bits
Colorimetry : 4:2:0
Scan type : Progressive
Bits/(Pixel*Frame) : 0.129
Stream size : 95.3 MiB (95%)
Encoded date : UTC 2014-03-18 03:00:03
Tagged date : UTC 2014-03-18 03:00:03

Audio
ID : 2
Format : AAC
Format/Info : Advanced Audio Codec
Format version : Version 4
Format profile : LC
Format settings, SBR : No
Codec ID : 40
Duration : 3mn 43s
Bit rate mode : Constant
Bit rate : 192 Kbps
Channel(s) : 2 channels
Channel positions : L R
Sampling rate : 44.1 KHz
Resolution : 16 bits
Stream size : 5.06 MiB (5%)
Encoded date : UTC 2014-03-18 03:00:03
Tagged date : UTC 2014-03-18 03:00:03

pb.wtf



Скачать Сектор газа туман через торрент https://pic1.kartinco.top/images/61/4dwia.jpg Скачать, смотреть онлайн Сектор газа туман [2014 г., Punk Rock, BDRip 720p] бесплантно в хорошем качестве Год выпуска: 2014Страна: RussiaЖанр: Punk Rock,Продолжительность: 3mn ... 7.4 10 34
Торрент: Зарегистрирован [2014-03-19 03:39] · скачан: 270 раз
Статус: √ проверено
Размер: 101 MB
Как cкачать? Как скачать Сектор газа туман через торрент | UTorrent

% Раздел Тема Автор DL S | L
Клипы [ 60 MB ] Сектор Газа - Туман [1996 Панк-рок DVDRip] Скорпион1976 Скачать
1 | 0

28-11-2019 20:33  

Отключить всю рекламу на сайте

19-03-2014 06:05 Сектор газа туман Скачать торрент  

Специально что-ли кто-то 1 оценку поставилpb.wtf



19-03-2014 06:06 Сектор газа туман Скачать торрент  

А что это за фильм в клипе?pb.wtf



19-03-2014 06:11 Сектор газа туман Скачать торрент  

грозовые воротаpb.wtf



    Дорогой пользователь! Огромная просьба, поблагодарите релизера, оцените раздачу и оставьте свои комментарий, если Вы скачали Сектор газа туман через торрент бесплатно!
    Комментировать посты могут только пользователи прошедшие не сложную регистрацию
    Показать сообщения:    

    Сектор газа туман через торрент
    Скачать бесплатно Сектор газа туман
    Сектор газа туман скачать торрент
    Сектор газа туман смотреть онлайн
    Cкачать фильм Сектор газа туман бесплатно
    Сектор газа туман скачать торрент в хорошем качестве
    Сектор газа туман смотреть онлайн бесплатно в хорошем качестве


    Вы не можете начинать темы
    Вы не можете отвечать на сообщения
    Вы не можете редактировать свои сообщения
    Вы не можете удалять свои сообщения
    Вы не можете голосовать в опросах
    Вы не можете прикреплять файлы к сообщениям
    Вы можете скачивать файлы