Всегда рабочее зеркало без VPN и Proxy просто перед .vidak.icu напиши любое слово или цифру, Пример http://3oht.vidak.icu

MVO

MVO

1 сезон

1

1 сезон

iTunes

1 сезон

13

1 сезон

Deluxe

pack

Рекомендуем

Repack

30

ВАЖНО

RePack

MK11

RePack

jed

RePack

fifa19

RePack

RDR2

RePack

NEED FOR SPEED™ PAYBACK

Кинопоиск HD

6 сезон

 Острые козырьки 6 сезон

Все сериалы

все сериалы на PB.wtf

RePack

FAR CRY 5
  
Magnet ссылка

12 лет рабства / 12 Years a Slave (Стив МакКуин) [2013, драма, биография, история, HDRip-AVC] DUB [Лицензия] от R.G. PiratFilms pb.wtf

12 лет рабства через торрент pb.wtf

Размер: 2.18 GB | Добавлен: 8 лет 2 мес. назад | Торрент скачан:417 раз
Смотреть онлайн 12 лет рабства | Скачать    Ребята, помогите собрать деньги на оплату серверов!!!

19-03-2014 09:29 12 лет рабства Скачать торрент  

12 лет рабства / 12 Years a Slave
«The extraordinary true story of Solomon Northup»



Год выпуска: 2013
Страна: США, Великобритания
Жанр: драма, биография, история
Продолжительность: 02:14:10
Перевод: Профессиональный (Дубляж) [Лицензия]

Режиссер: Стив МакКуин

В ролях: Чиветель Эджиофор, Майкл Фассбендер, Лупита Нионго, Сара Полсон, Бенедикт Камбербэтч, Брэд Питт, Пол Дано, Пол Джаматти, Элфри Вудард, Куавенжаней Уоллис

Описание: Соломон Нортап был женатым и образованным мужчиной, который жил и работал в Нью-Йорке, когда два человека однажды предложили ему привлекательную работу в Вашингтоне. По прибытии он был похищен, стал рабом и влачил жалкую жизнь, переходя от одного хозяина к другому.

|

Качество: HDRip-AVC (Rip by Phoenix)
Исходник: BDRip 1080p
Формат: MKV
Видео кодек: H.264
Аудио кодек: AC3
Видео: H.264, 960*400, 23,976 кадр/сек, 1874 Кбит/сек, 0.204 Бит/(Пиксели*Кадры)
Аудио: AC3, 448 Кбит/сек, 6 каналов, 48,0 КГц

Код:

---[Information] [19.03.2014 10:39:30] x264 [info]: frame I:1117  Avg QP:13.72  size: 79820  PSNR Mean Y:48.64 U:51.61 V:52.44 Avg:49.46 Global:48.50
---[Information] [19.03.2014 10:39:30] x264 [info]: frame P:47493 Avg QP:16.96  size: 20633  PSNR Mean Y:45.53 U:49.37 V:50.35 Avg:46.51 Global:45.49
---[Information] [19.03.2014 10:39:30] x264 [info]: frame B:144399 Avg QP:19.42  size:  5642  PSNR Mean Y:45.32 U:49.93 V:51.00 Avg:46.41 Global:45.00
---[Information] [19.03.2014 10:39:30] x264 [info]: consecutive B-frames:  3.9%  3.9%  9.5% 25.4% 15.4% 36.1%  2.4%  1.3%  2.0%

Код:

Общее
Уникальный идентификатор                 : 197157567597751375347363763977400465003 (0x94532A93F0FCF194B8B8F53016F5B66B)
Полное имя                               : G:\Video\Rip by Phoenix\12 Years a Slave Rip by Phoenix.mkv
Формат                                   : Matroska
Версия формата                           : Version 2
Размер файла                             : 2,18 Гбайт
Продолжительность                        : 2 ч. 14 м.
Общий поток                              : 2322 Кбит/сек
Дата кодирования                         : UTC 2014-05-14 16:09:32
Программа кодирования                    : mkvmerge v6.5.0 ('Isn't she lovely') built on Oct 20 2013 12:50:05
Библиотека кодирования                   : libebml v1.3.0 + libmatroska v1.4.1

Видео
Идентификатор                            : 1
Формат                                   : AVC
Формат/Информация                        : Advanced Video Codec
Профиль формата                          : [email protected]
Параметр CABAC формата                   : Да
Параметр ReFrames формата                : 12 кадров
Идентификатор кодека                     : V_MPEG4/ISO/AVC
Продолжительность                        : 2 ч. 14 м.
Битрейт                                  : 1874 Кбит/сек
Ширина                                   : 960 пикселей
Высота                                   : 400 пикселей
Соотношение сторон                       : 2,40:1
Режим частоты кадров                     : Постоянный
Частота кадров                           : 23,976 кадра/сек
Цветовое пространство                    : YUV
Субдискретизация насыщенности            : 4:2:0
Битовая глубина                          : 8 бит
Тип развёртки                            : Прогрессивная
Бит/(Пиксели*Кадры)                      : 0.204
Размер потока                            : 1,71 Гбайт (79%)
Заголовок                                : Rip by Phoenix
Библиотека кодирования                   : x264 core 138 r2358 9e941d1
Настройки программы                      : cabac=1 / ref=12 / deblock=1:-3:-3 / analyse=0x3:0x113 / me=umh / subme=9 / psy=1 / psy_rd=1.00:0.00 / mixed_ref=1 / me_range=32 / chroma_me=1 / trellis=2 / 8x8dct=1 / cqm=0 / deadzone=21,11 / fast_pskip=1 / chroma_qp_offset=-2 / threads=4 / lookahead_threads=1 / sliced_threads=0 / nr=0 / decimate=1 / interlaced=0 / bluray_compat=0 / constrained_intra=0 / bframes=8 / b_pyramid=2 / b_adapt=2 / b_bias=0 / direct=1 / weightb=1 / open_gop=0 / weightp=2 / keyint=240 / keyint_min=23 / scenecut=40 / intra_refresh=0 / rc_lookahead=40 / rc=2pass / mbtree=1 / bitrate=1874 / ratetol=1.0 / qcomp=0.75 / qpmin=0 / qpmax=69 / qpstep=4 / cplxblur=20.0 / qblur=0.5 / ip_ratio=1.40 / aq=1:1.00
Язык                                     : English
Default                                  : Да
Forced                                   : Нет

Аудио
Идентификатор                            : 2
Формат                                   : AC-3
Формат/Информация                        : Audio Coding 3
Расширение режима                        : CM (complete main)
Параметр Endianness формата              : Big
Идентификатор кодека                     : A_AC3
Продолжительность                        : 2 ч. 14 м.
Вид битрейта                             : Постоянный
Битрейт                                  : 448 Кбит/сек
Каналы                                   : 6 каналов
Расположение каналов                     : Front: L C R, Side: L R, LFE
Частота                                  : 48,0 КГц
Битовая глубина                          : 16 бит
Метод сжатия                             : С потерями
Размер потока                            : 430 Мбайт (19%)
Язык                                     : Russian
Default                                  : Да
Forced                                   : Нет

pb.wtf



Скачать 12 лет рабства через торрент https://pic1.kartinco.top/images/61/ayxdv.jpg Скачать, смотреть онлайн 12 лет рабства бесплантно в хорошем качестве Описание: Соломон Нортап был женатым и образованным мужчиной, который жил и работал в Нью-Йорке, когда два человека однажды предложили ему ... 9.2 10 18
Info! Золотая раздача, скачанное не засчитывается.
Торрент: Зарегистрирован [2014-05-14 15:29] · скачан: 417 раз
Статус: √ проверено
Размер: 2.18 GB
Как cкачать? Как скачать 12 лет рабства через торрент | UTorrent



Последний раз редактировалось: Phoenix (2014-05-14 15:29), всего редактировалось 1 раз

28-11-2019 20:33  

Отключить вcю реклaмy на сайте

19-03-2014 10:07 12 лет рабства Скачать торрент  

Как только выйдет Лицензия заменю аудио в раздачеpb.wtf



14-05-2014 15:30 12 лет рабства Скачать торрент  

Обновил раздачу, звук с Лицензииpb.wtf



03-11-2014 01:21 12 лет рабства Скачать торрент  

Неплохое кино ... Цепляет ...pb.wtf



    Дорогой пользователь! Огромная просьба, поблагодарите релизера, оцените раздачу и оставьте свои комментарий, если Вы скачали 12 лет рабства через торрент бесплатно!
    Комментировать посты могут только пользователи прошедшие не сложную регистрацию
    Показать сообщения:    

    12 лет рабства через торрент
    Скачать бесплатно 12 лет рабства
    12 лет рабства скачать торрент
    12 лет рабства смотреть онлайн
    Cкачать фильм 12 лет рабства бесплатно
    12 лет рабства скачать торрент в хорошем качестве
    12 лет рабства смотреть онлайн бесплатно в хорошем качестве


    Вы не можете начинать темы
    Вы не можете отвечать на сообщения
    Вы не можете редактировать свои сообщения
    Вы не можете удалять свои сообщения
    Вы не можете голосовать в опросах
    Вы не можете прикреплять файлы к сообщениям
    Вы можете скачивать файлы