2 сезон

iTunes

MVO

1

2 сезон

iTunes

iTunes

1 сезон

RePack

30

Новинка

ВАЖНО

ИГРА 18+

pack

RePack

MK11
pack

Легкие деньги

RePack

jed

RePack

fifa19

RePack

RDR2

RePack

NEED FOR SPEED™ PAYBACK

4 сезон

9 сезон

Бесстыжие 9 сезон

Все сериалы

все сериалы на PB.wtf

RePack

FAR CRY 5

Anonymous, добрый вечер, мы не успеваем собрать деньги на оплату серверов за декабрь и январь, помогите нам пожалуйста в это трудное время. В качестве благодарности мы отключим Вам всю рекламу на сайте (укажите свой ник в строку Ваше имя)!

×
  
Magnet ссылка

Афера по-американски / American Hustle (Дэвид О. Расселл / David O. Russell) [2013, США, драма, комедия, HDRip,Профессиональный [Дубляж - Лицензия] pb.wtf

Афера по-американски через торрент pb.wtf

Размер: 2.05 GB | Добавлен: 6 лет 10 мес. назад | Торрент скачан:289 раз
Скачать  

19-03-2014 11:33 Афера по-американски Скачать торрент  

Афера по-американски / American Hustle

«Everyone Hustles To Survive»

  • Год выпуска:2013
  • Страна:США
  • Жанр: драма, комедия

  • Продолжительность: 02:18:04
  • Перевод: Профессиональный [Дубляж - Лицензия]

  • Субтитры: Нет
  • Режиссер:Дэвид О. Расселл / David O. Russell
  • В ролях:

    Кристиан Бэйл (Irving Rosenfeld), Эми Адамс (Sydney Prosser), Брэдли Купер (Richie DiMaso), Дженнифер Лоуренс (Rosalyn Rosenfeld), Джереми Реннер (Mayor Carmine Polito), Луис С.К. (Stoddard Thorsen), Алессандро Нивола (Anthony Amado), Джек Хьюстон (Pete Musane), Роберт Де Ниро (Victor Tellegio, в титрах не указан), Майкл Пенья (Paco Hernandez / Sheik Abdullah), Ши Уигхэм (Carl Elway), Элизабет Рём (Dolly Polito)
    • Описание:
      В основе сюжета фильма реальная спецоперация, проводимая в конце 70-х - начале 80-х ФБР под кодовым названием Abscam. Она изначально была нацелена на расследование торговли краденым товаром. ФБР собиралось внедрить в преступную среду своих агентов под видом посредников, скупающих краденые шедевры для богатых коллекционеров Ближнего Востока. Впоследствии операция превратилась в изобличение коррупции на разных уровнях.

    Мировая премьера:12 декабря 2013
    • Качество:HDRip
    • Формат:AVI
    • Видео кодек: XviD
    • Аудио кодек:AC3
    • Видео: XviD, 720x304 (2.35:1), 1668 kbps, 23,976 fps, 0,318 bpp
    • Аудио: AC3 / 5.1 / 48 kHz / 448 kbps / 16 bit


    Код:

    General
    Complete name                            : D:ТорентыAfera.po.Amerikanski.2013.D.HDRip.2100Mb.avi
    Format                                   : AVI
    Format/Info                              : Audio Video Interleave
    Format profile                           : OpenDML
    File size                                : 2.05 GiB
    Duration                                 : 2h 18mn
    Overall bit rate                         : 2 129 Kbps
    Writing application                      : VirtualDubMod 1.5.10.2 (build 2540/release)
    Writing library                          : VirtualDubMod build 2540/release

    Video
    ID                                       : 0
    Format                                   : MPEG-4 Visual
    Format profile                           : Advanced Simple@L5
    Format settings, BVOP                    : 2
    Format settings, QPel                    : No
    Format settings, GMC                     : No warppoints
    Format settings, Matrix                  : Custom
    Codec ID                                 : XVID
    Codec ID/Hint                            : XviD
    Duration                                 : 2h 18mn
    Bit rate                                 : 1 669 Kbps
    Width                                    : 720 pixels
    Height                                   : 304 pixels
    Display aspect ratio                     : 2.35:1
    Frame rate                               : 23.976 fps
    Color space                              : YUV
    Chroma subsampling                       : 4:2:0
    Bit depth                                : 8 bits
    Scan type                                : Progressive
    Compression mode                         : Lossy
    Bits/(Pixel*Frame)                       : 0.318
    Stream size                              : 1.61 GiB (78%)
    Writing library                          : XviD 1.2.1 (UTC 2008-12-04)

    Audio
    ID                                       : 1
    Format                                   : AC-3
    Format/Info                              : Audio Coding 3
    Mode extension                           : CM (complete main)
    Codec ID                                 : 2000
    Duration                                 : 2h 18mn
    Bit rate mode                            : Constant
    Bit rate                                 : 448 Kbps
    Channel(s)                               : 6 channels
    Channel positions                        : Front: L C R, Side: L R, LFE
    Sampling rate                            : 48.0 KHz
    Bit depth                                : 16 bits
    Compression mode                         : Lossy
    Stream size                              : 442 MiB (21%)
    Alignment                                : Split accross interleaves
    Interleave, duration                     : 42 ms (1.00 video frame)
    Interleave, preload duration             : 500 ms

    Скриншоты:

    Трейлеры к фильмам [2014]
    © Оформление by Raven pb.wtf



  • Скачать Афера по-американски через торрент http://i4.imageban.ru/out/2014/03/19/b91cadc38c765b23bb911d56436a4ae4.jpg Скачать фильм Афера по-американски через торрент бесплантно в хорошем качестве Описание:В основе сюжета фильма реальная спецоперация, проводимая в конце 70-х - начале 80-х ФБР под кодовым названием Abscam. Она ... 9 10 12
    Info! Серебряная раздача, засчитывается только 50% скачанного.
    Торрент: Зарегистрирован [2014-03-19 11:33] · скачан: 289 раз
    Статус: √ проверено
    Размер: 2.05 GB
    Как cкачать? Как скачать Афера по-американски через торрент | UTorrent

    % Раздел Тема Автор DL S | L
    Порно фильмы с русским переводом [ 2.55 GB ] Афера по-американски / American Hustle XXX Porn Parody [2014 Feature WEB-DL ] nn99nn Скачать
    1 | 0
    Фильмы 2013 [DVDrip, WEB-DLRip, HDrip] [ 1.58 GB ] Афера по-американски / American Hustle [2013 BDRip by keeper.52] DUB + Original + Sub keeper.52 Скачать
    2 | 0
    Фильмы 2013 [DVDrip, WEB-DLRip, HDrip] [ 2.62 GB ] Афера по-американски / American Hustle [2013 BDRip-AVC by keeper.52] DUB + Original + Sub keeper.52 Скачать
    2 | 0
    Фильмы 2013 [DVDrip, WEB-DLRip, HDrip] [ 2.62 GB ] Афера по-американски / American Hustle [2013 BDRip by keeper.52] DUB + Original + Sub keeper.52 Скачать
    2 | 0
    Фильмы с авторской озвучкой [ 1.46 GB ] Афера по-американски / American Hustle [2013 BDRip] [AVO] killermax2013 Скачать
    1 | 0
    Порно фильмы с сюжетом [ 2.52 GB ] Афера по-американски XXX / American Hustle XXX [2014 Порно-пародия WEB-DLRip Оригинал] Magnat Скачать
    1 | 0
    Фильмы 2013 [DVDrip, WEB-DLRip, HDrip] [ 2.91 GB ] Афера по-американски / American Hustle [2013 BDRip-AVC] DUB potroks Скачать
    1 | 0

    28-11-2019 20:33  

    Отключить всю рекламу на сайте

      Дорогой пользователь! Огромная просьба, поблагодарите релизера, оцените раздачу и оставьте свои комментарий, если Вы скачали Афера по-американски через торрент бесплатно! Внесите свою лепту в развитие PiratBit!
      Комментировать посты могут только пользователи прошедшие не сложную регистрацию
      Показать сообщения:    

      Афера по-американски через торрент
      Скачать бесплатно Афера по-американски
      Афера по-американски скачать торрент
      Афера по-американски смотреть онлайн
      Cкачать фильм Афера по-американски бесплатно
      Афера по-американски скачать торрент в хорошем качестве
      Афера по-американски смотреть онлайн бесплатно в хорошем качестве


      Вы не можете начинать темы
      Вы не можете отвечать на сообщения
      Вы не можете редактировать свои сообщения
      Вы не можете удалять свои сообщения
      Вы не можете голосовать в опросах
      Вы не можете прикреплять файлы к сообщениям
      Вы можете скачивать файлы