1 сезон

3 сезон

iTunes

1

Line

MVO

iTunes

13

1 сезон

RePack

30

Deluxe

pack

Лицензия

ВАЖНО

ИГРА 18+

pack

RePack

MK11

RePack

jed

RePack

fifa19

RePack

RDR2

RePack

NEED FOR SPEED™ PAYBACK

4 сезон

9 сезон

Бесстыжие 9 сезон

Все сериалы

все сериалы на PB.wtf

RePack

FAR CRY 5

Anonymous, доброе утро, мы катастрофически не успеваем собрать деньги на оплату серверов, помогите нам пожалуйста 5,10,15р., для нас важна любая помощь . В качестве благодарности мы отключим Вам всю рекламу на сайте (укажите свой ник в строку Ваше имя)!

×
  
Magnet ссылка

Афера по-американски / American Hustle (Дэвид О. Расселл / David O. Russell) [2013, драма, комедия, DVD9] R5 pb.wtf

Афера по-американски через торрент pb.wtf

Размер: 6.18 GB | Добавлен: 7 лет 4 мес. назад | Торрент скачан:104 раза
Скачать  

19-03-2014 20:09 Афера по-американски Скачать торрент  


Афера по-американски / American Hustle
«Everyone Hustles To Survive»
Страна: США
Студия: Annapurna Pictures, Atlas Entertainment
Жанр: драма, комедия
Год выпуска: 2013
Мировая премьера: 12 декабря 2013
Российская премьера: 13 февраля 2014
Дата выхода DVD: 18 марта 2014
Дата выхода Blu-Ray: 15 апреля 2014»
Продолжительность: 02:12:21
Перевод: Профессиональный (дублированный) [Лицензия]
Cубтитры: нет
Оригинальная аудиодорожка: нет
Режиссер: Дэвид О. Расселл / David O. Russell
В ролях: Кристиан Бэйл, Эми Адамс, Брэдли Купер, Дженнифер Лоуренс, Джереми Реннер, Луис С.К., Алессандро Нивола, Джек Хьюстон, Роберт Де Ниро, Майкл Пенья...
Описание: В основе сюжета фильма реальная спецоперация, проводимая в конце 70-х — начале 80-х ФБР под кодовым названием Abscam. Она изначально была нацелена на расследование торговли краденым товаром. ФБР собиралось внедрить в преступную среду своих агентов под видом посредников, скупающих краденые шедевры для богатых коллекционеров Ближнего Востока. Впоследствии операция превратилась в изобличение коррупции на разных уровнях.
Бонусы: нет

Релиз группы:
Качество: DVD9 R5
Формат: DVD-Video
Видео кодек: MPEG2
Аудио кодек: AC3
Видео: PAL 16:9 (720x576(0.600)) MPEG Video, 25,000 кадр/сек, 6216 Кбит/сек
Аудио: Russian (Dolby AC3, 6 ch) 448 Кбит/сек, 48,0 КГц



Title: Afera.po-amerikanski.2013.DVD9
Size: 6.18 Gb ( 6 481 576,00 KBytes ) - DVD-9
Enabled regions: 1, 2, 3, 4, 5, 6, 7, 8

VTS_01 :
Play Length: 02:12:21
Video: PAL 16:9 (720x576) VBR, Auto Letterboxed
Audio:
Russian (Dolby AC3, 6 ch)

VTS_02 :
Play Length: 00:00:08
Video: PAL 4:3 (720x576) VBR

VTS_03 :
Play Length: 00:00:21+00:00:16+00:00:10
Video: PAL 16:9 (720x576) VBR, Auto Letterboxed
Audio:
English (Dolby AC3, 2 ch)

* Menus Information *

VIDEO_TS Menu
Video:
NTSC 4:3 (720x480) VBR
Auto Pan&Scan, Auto Letterboxed
Russian Language Unit :
Title Menu

VTS_01 Menu
Video:
PAL 16:9 (720x576) VBR
Auto Letterboxed
Audio:
Not specified (Dolby AC3, 2 ch)
Russian Language Unit :
Root Menu
Chapter (PTT) Menu

VTS_02 Menu
Video:
NTSC 4:3 (720x480) VBR
Auto Pan&Scan, Auto Letterboxed
Language Unit :
Subpicture Menu
Angle menu
Language Unit :

Language Unit :
Audio Menu
Chapter (PTT) Menu
Language Unit :

Language Unit :
Audio Menu
Chapter (PTT) Menu

VTS_03 Menu
Video:
NTSC 4:3 (720x480) VBR
Auto Pan&Scan, Auto Letterboxed
Language Unit :
Subpicture Menu
Angle menu
Language Unit :
Subpicture Menu
Angle menu
Language Unit :
Subpicture Menu
Angle menu
Language Unit :
Subpicture Menu
Angle menu
Language Unit :
Subpicture Menu
Angle menu
Общее
Полное имя : D:Новинки 2014Afera.po-amerikanski.2013.DVD9VIDEO_TSVTS_01_1.VOB
Формат : MPEG-PS
Размер файла : 1024 Мбайт
Продолжительность : 21 м.
Режим общего битрейта : Переменный
Общий поток : 6799 Кбит/сек

Видео
Идентификатор : 224 (0xE0)
Формат : MPEG Video
Версия формата : Version 2
Профиль формата : Main@Main
Параметр BVOP формата : Да
Параметр матрицы формата : Выборочная
Параметр GOP формата : M=3, N=15
Продолжительность : 21 м.
Вид битрейта : Переменный
Битрейт : 6216 Кбит/сек
Максимальный битрейт : 8000 Кбит/сек
Ширина : 720 пикселей
Высота : 576 пикселей
Соотношение сторон : 16:9
Частота кадров : 25,000 кадров/сек
Стандарт вещания : PAL
Цветовое пространство : YUV
Субдискретизация насыщенности : 4:2:0
Битовая глубина : 8 бит
Тип развёртки : Чересстрочная
Порядок развёртки : Верхнее поле первое
Метод сжатия : С потерями
Бит/(Пиксели*Кадры) : 0.600
Временной код первого кадра : 00:00:00:00
Оригинал временного кода : Group of pictures header
Размер потока : 936 Мбайт (91%)

Аудио
Идентификатор : 189 (0xBD)-128 (0x80)
Формат : AC-3
Формат/Информация : Audio Coding 3
Расширение режима : CM (complete main)
Параметр Endianness формата : Big
Режим смешивания : DVD-Video
Продолжительность : 21 м.
Вид битрейта : Постоянный
Битрейт : 448 Кбит/сек
Каналы : 6 каналов
Расположение каналов : Front: L C R, Side: L R, LFE
Частота : 48,0 КГц
Битовая глубина : 16 бит
Метод сжатия : С потерями
Размер потока : 67,4 Мбайт (7%)










pb.wtf



Скачать Афера по-американски через торрент http://i33.fastpic.ru/big/2014/0319/13/e9f1eedc124bb393d4cc00e8c3e88a13.jpg Скачать фильм Афера по-американски через торрент бесплантно в хорошем качестве Описание: В основе сюжета фильма реальная спецоперация, проводимая в конце 70-х — начале 80-х ФБР под кодовым названием Abscam. Она ... 10 10 4
Info! Золотая раздача, скачанное не засчитывается.
Торрент: Зарегистрирован [2014-03-19 20:09] · скачан: 104 раз
Статус: √ проверено
Размер: 6.18 GB
Как cкачать? Как скачать Афера по-американски через торрент | UTorrent

% Раздел Тема Автор DL S | L
Фильмы 2013 [DVDrip, WEB-DLRip, HDrip] [ 2.18 GB ] Афера по-американски / American Hustle [2013 HDRip-AVC ] + Ukr + Sub White Smoke Скачать
1 | 0
Фильмы [HD 720p, 1080p] (Хороший звук DUB, MVO) [ 10.52 GB ] Афера по-американски / American Hustle [2013 BDRip 1080p] DUB от R.G. HD-Films Ворон Скачать
1 | 0

28-11-2019 20:33  

Отключить всю рекламу на сайте

    Дорогой пользователь! Огромная просьба, поблагодарите релизера, оцените раздачу и оставьте свои комментарий, если Вы скачали Афера по-американски через торрент бесплатно! Внесите свою лепту в развитие PiratBit!
    Комментировать посты могут только пользователи прошедшие не сложную регистрацию
    Показать сообщения:    

    Афера по-американски через торрент
    Скачать бесплатно Афера по-американски
    Афера по-американски скачать торрент
    Афера по-американски смотреть онлайн
    Cкачать фильм Афера по-американски бесплатно
    Афера по-американски скачать торрент в хорошем качестве
    Афера по-американски смотреть онлайн бесплатно в хорошем качестве


    Вы не можете начинать темы
    Вы не можете отвечать на сообщения
    Вы не можете редактировать свои сообщения
    Вы не можете удалять свои сообщения
    Вы не можете голосовать в опросах
    Вы не можете прикреплять файлы к сообщениям
    Вы можете скачивать файлы