Всегда рабочее зеркало без VPN и Proxy просто перед .vidak.icu напиши любое слово или цифру, Пример http://1gai.vidak.icu

MVO

MVO

1 сезон

1

1 сезон

iTunes

1 сезон

13

1 сезон

Deluxe

pack

Рекомендуем

Repack

30

ВАЖНО

RePack

MK11

RePack

jed

RePack

fifa19

RePack

RDR2

RePack

NEED FOR SPEED™ PAYBACK

Кинопоиск HD

6 сезон

 Острые козырьки 6 сезон

Все сериалы

все сериалы на PB.wtf

RePack

FAR CRY 5
  
Magnet ссылка

Встречный ветер / Des vents contraires (Джалиль Леспер / Jalil Lespert) [2011, Франция, Бельгия, драма, детектив, HDRip,Профессиональный (многоголосый, закадровый) pb.wtf

Встречный ветер через торрент pb.wtf

Размер: 1.45 GB | Добавлен: 8 лет 4 мес. назад | Торрент скачан:31 раз
Смотреть онлайн Встречный ветер | Скачать    Ребята, помогите собрать деньги на оплату серверов!!!

20-03-2014 15:20 Встречный ветер Скачать торрент  

Встречный ветер / Des vents contraires
Год выпуска: 2011
Страна: Франция, Бельгия
Жанр: драма, детектив
Продолжительность: 01:31:51
Перевод: Профессиональный (многоголосый, закадровый)
Субтитры: Нет
Режиссер: Джалиль Леспер / Jalil Lespert
В ролях: Бенуа Мажимель (Paul Anderen), Изабель Карре (Josée Combe), Антуан Дюлери (Alex Anderen), Рамзи Бедиа (Le déménageur), Були Ланнерс (Monsieur Bréhel), Мари-Анж Каста (Justine Leblanc), Одри Тоту (Sarah Anderen), Даниэль Дюваль (Xavier, l'éditeur), Лубна Азабаль (La mère de Yamine), Аврора Клеман (Madame Pierson), Хьюго Фернандес (Clément Anderen), Кассиопея Маянс (Manon Anderen)
Описание:
Жизнь писателя Поля полностью меняется, когда его жена Сара исчезает. После года безуспешных поисков он оказывается совершенно разбитым человеком, измученным сомнениями и чувством вины. Его последний шанс это начать жизнь с чистого листа. Вместе с детьми Поль возвращается в город своего детства Сен-Мало. Однако неожиданная встреча там придаст его планам совершенно непредвиденный поворот.
kinopoisk.ru: 6.661 (1042)
imdb.com: 6.50 (571)
Качество: HDRip
Формат: AVI
Видео кодек: XviD
Аудио кодек: AC3
Видео: XviD, 704x384 (16:9), 1867 kbps, 23,976 fps, 0,288 bpp
Аудио: AC3 / 5.1 / 48 kHz / 384 kbps / 16 bit

Общее
Полное имя : E:закачкиVstrechnyj.veter.2011_HDRip.avi
Формат : AVI
Формат/Информация : Audio Video Interleave
Размер файла : 1,45 Гбайт
Продолжительность : 1 ч. 31 м.
Общий поток : 2260 Кбит/сек
Программа кодирования : VirtualDubMod 1.5.10.2 (build 2540/release)
Библиотека кодирования : VirtualDubMod build 2540/release

Видео
Идентификатор : 0
Формат : MPEG-4 Visual
Профиль формата : Advanced [email protected]
Параметр BVOP формата : 1
Параметр QPel формата : Нет
Параметр GMC формата : Без точки перехода
Параметр матрицы формата : Выборочная
Идентификатор кодека : XVID
Идентификатор кодека/Подсказка : XviD
Продолжительность : 1 ч. 31 м.
Битрейт : 1867 Кбит/сек
Ширина : 704 пикселя
Высота : 384 пикселя
Соотношение сторон : 1,85:1
Частота кадров : 23,976 кадра/сек
Цветовое пространство : YUV
Субдискретизация насыщенности : 4:2:0
Битовая глубина : 8 бит
Тип развёртки : Прогрессивная
Метод сжатия : С потерями
Бит/(Пиксели*Кадры) : 0.288
Размер потока : 1,20 Гбайт (83%)
Библиотека кодирования : XviD 1.2.1 (UTC 2008-12-04)

Аудио
Идентификатор : 1
Формат : AC-3
Формат/Информация : Audio Coding 3
Расширение режима : CM (complete main)
Параметр Endianness формата : Big
Идентификатор кодека : 2000
Продолжительность : 1 ч. 31 м.
Вид битрейта : Постоянный
Битрейт : 384 Кбит/сек
Каналы : 6 каналов
Расположение каналов : Front: L C R, Side: L R, LFE
Частота : 48,0 КГц
Битовая глубина : 16 бит
Метод сжатия : С потерями
Размер потока : 252 Мбайт (17%)
Выравнивание : Разделение по промежуткам
Продолжительность промежутка : 42 мс. (1,00 видеокадр)
Время предзагрузки промежутка : 500 мс.
pb.wtf



Скачать Встречный ветер через торрент http://i42.fastpic.ru/big/2012/0710/f1/bf2da6ad6065a9ab54b33af18af10df1.jpg Скачать, смотреть онлайн Встречный ветер бесплантно в хорошем качестве Описание: Жизнь писателя Поля полностью меняется, когда его жена Сара исчезает. После года безуспешных поисков он оказывается совершенно ... 10 10 4
Торрент: Зарегистрирован [2014-03-20 15:20] · скачан: 31 раз
Статус: √ проверено
Размер: 1.45 GB
Как cкачать? Как скачать Встречный ветер через торрент | UTorrent

% Раздел Тема Автор DL S | L
Фильмы (DVD фильмы) [ 6.46 GB ] Встречный ветер / Des vents contraires [2011 DVD9] R5 voovaz Скачать
1 | 0

28-11-2019 20:33  

Отключить вcю реклaмy на сайте

    Дорогой пользователь! Огромная просьба, поблагодарите релизера, оцените раздачу и оставьте свои комментарий, если Вы скачали Встречный ветер через торрент бесплатно!
    Комментировать посты могут только пользователи прошедшие не сложную регистрацию
    Показать сообщения:    

    Встречный ветер через торрент
    Скачать бесплатно Встречный ветер
    Встречный ветер скачать торрент
    Встречный ветер смотреть онлайн
    Cкачать фильм Встречный ветер бесплатно
    Встречный ветер скачать торрент в хорошем качестве
    Встречный ветер смотреть онлайн бесплатно в хорошем качестве


    Вы не можете начинать темы
    Вы не можете отвечать на сообщения
    Вы не можете редактировать свои сообщения
    Вы не можете удалять свои сообщения
    Вы не можете голосовать в опросах
    Вы не можете прикреплять файлы к сообщениям
    Вы можете скачивать файлы