MEGA SALE -50% FORZA HORIZON 4 ULTIMATE+ВСЕ DLC+ОНЛАЙН всего за 599р. 299 руб. (супер цена). Внимание количество ограничено!!!

iTunes

1+1

iTunes

мы

iTunes

1

iTunes

Чернобыль

iTunes

Ральф против интернета

Лицензия

ПШазам

Лицензия

Игра престолов

Лицензия

30
pack

ВАЖНО

!!Акция!!

Alien_RageХит недели

RePack

Resident Evil 21

ИГРА 18+

pack

RePack

Metro:Exodus

!!Акция!!

Alien_Rage

RePack

fifa19

RePack

Assassins Creed: Odyssey

RePack

NEED FOR SPEED™ PAYBACK

3 сезон

9 сезон

Бесстыжие 9 сезон

Все сериалы

все сериалы на PB.wtf

RePack

FAR CRY 5
Ребята, катастрофически не хватает 7730р. для оплаты серверов за АВГУСТ (всвязи с блокировками трафик упал в 3 раза), 1-2р., выручайте.
  

47 ронинов / 47 Ronin (Карл Ринш / Carl Rinsch) [2013, США, фэнтези, боевик, приключения, HDRip,Профессиональный [Дубляж - Чистый звук] pb.wtf

47 ронинов через торрент pb.wtf

Размер: 2.05 GB | Добавлен: 5 лет 6 мес. назад | Торрент скачан:3359 раз
Скачать  

20-03-2014 16:29 47 ронинов Скачать торрент  

47 ронинов / 47 Ronin

«This Christmas, seize eternity»

  • Год выпуска:2013
  • Страна:США
  • Жанр: фэнтези, боевик, приключения

  • Продолжительность: 01:58:43
  • Перевод: Профессиональный [Дубляж - Чистый звук]

  • Субтитры: Нет
  • Режиссер:Карл Ринш / Carl Rinsch
  • В ролях:

    Киану Ривз (Kai), Хироюки Санада (Ôishi), Ко Шибасаки (Mika), Таданобу Асано (Lord Kira), Мин Танака (Lord Asano), Джин Аканиши (Chikara), Масаёси Ханеда (Yasuno), Хироси Согабэ (Hazama), Такато Йонемото (Basho), Хироси Ямада (Hara), Шу Накаджима (Horibe), Кэри-Хироюки Тагава (Shogun Tsunayoshi)
    • Описание:
      Таинственный странник, преданный всеми, проданный в рабство, избранный судьбой вершить месть, станет одним из 47 воинов, бросивших вызов смерти. Явившись из другого мира, он восстанет против темных сил, чтобы защитить свою запретную любовь.

    Мировая премьера:6 декабря 2013
    • Качество:HDRip
    • Формат:AVI
    • Видео кодек: XviD
    • Аудио кодек:AC3
    • Видео: XviD, 720x304 (2.35:1), 1855 kbps, 23,976 fps, 0,353 bpp
    • Аудио №1: AC3 / 2.0 / 48 kHz / 256 kbps / 16 bit-RUS
      Аудио №2: AC3 / 5.1 / 48 kHz / 256 kbps / 16 bit-ENG


    Код:

    General
    Complete name                            : D:Торенты47.Roninov.2013.D.HDRip.2100MB.avi
    Format                                   : AVI
    Format/Info                              : Audio Video Interleave
    File size                                : 2.05 GiB
    Duration                                 : 1h 58mn
    Overall bit rate                         : 2 476 Kbps
    Writing application                      : VirtualDubMod 1.5.10.2 (build 2540/release)
    Writing library                          : VirtualDubMod build 2540/release

    Video
    ID                                       : 0
    Format                                   : MPEG-4 Visual
    Format profile                           : Advanced Simple@L5
    Format settings, BVOP                    : 2
    Format settings, QPel                    : No
    Format settings, GMC                     : No warppoints
    Format settings, Matrix                  : Custom
    Codec ID                                 : XVID
    Codec ID/Hint                            : XviD
    Duration                                 : 1h 58mn
    Bit rate                                 : 1 855 Kbps
    Width                                    : 720 pixels
    Height                                   : 304 pixels
    Display aspect ratio                     : 2.35:1
    Frame rate                               : 23.976 fps
    Color space                              : YUV
    Chroma subsampling                       : 4:2:0
    Bit depth                                : 8 bits
    Scan type                                : Progressive
    Compression mode                         : Lossy
    Bits/(Pixel*Frame)                       : 0.353
    Stream size                              : 1.54 GiB (75%)
    Writing library                          : XviD 1.2.1 (UTC 2008-12-04)

    Audio #1
    ID                                       : 1
    Format                                   : AC-3
    Format/Info                              : Audio Coding 3
    Mode extension                           : CM (complete main)
    Codec ID                                 : 2000
    Duration                                 : 1h 58mn
    Bit rate mode                            : Constant
    Bit rate                                 : 256 Kbps
    Channel(s)                               : 2 channels
    Channel positions                        : Front: L R
    Sampling rate                            : 48.0 KHz
    Bit depth                                : 16 bits
    Compression mode                         : Lossy
    Stream size                              : 217 MiB (10%)
    Alignment                                : Split accross interleaves

    Audio #2
    ID                                       : 2
    Format                                   : AC-3
    Format/Info                              : Audio Coding 3
    Mode extension                           : CM (complete main)
    Codec ID                                 : 2000
    Duration                                 : 1h 58mn
    Bit rate mode                            : Constant
    Bit rate                                 : 256 Kbps
    Channel(s)                               : 6 channels
    Channel positions                        : Front: L C R, Side: L R, LFE
    Sampling rate                            : 48.0 KHz
    Bit depth                                : 16 bits
    Compression mode                         : Lossy
    Stream size                              : 217 MiB (10%)
    Alignment                                : Split accross interleaves

    Скриншоты:

    Трейлеры к фильмам [2014]
    © Оформление by Raven pb.wtf



  • Скачать 47 ронинов через торрент http://i4.imageban.ru/out/2014/03/20/10ed0769324a476f6a2eba93a0d52aa3.jpg Скачать фильм 47 ронинов через торрент бесплантно в хорошем качестве Описание:Таинственный странник, преданный всеми, проданный в рабство, избранный судьбой вершить месть, станет одним из 47 воинов, бросивших ... 9.9 10 93
    Info! Золотая раздача, скачанное не засчитывается.
    Торрент: Зарегистрирован [2014-03-20 16:29] · скачан: 3 359 раз
    Статус: ∑ поглощено
    Размер: 2.05 GB
    Как cкачать? Как скачать 47 ронинов через торрент | qTorrent

    % Раздел Тема Автор DL S | L
    Фильмы (Blu-ray, BD-Remux, HDDVD) [ 41.42 GB ] 47 ронинов / 47 Ronin [2013 Blu-ray ] Бумер Скачать
    1 | 0
    3D Фильмы [ 9.96 GB ] 47 ронинов 3D / 47 Ronin 3D [ 2013 BDRip1080 ]DUB Half OverUnder GEKADOL Скачать
    1 | 0
    Фильмы [HD 720p, 1080p] (Хороший звук DUB, MVO) [ 13.87 GB ] 47 ронинов / 47 Ronin [2013 BDRip 1080p DUB ] от R.G. HD-Films Seedtank Скачать
    1 | 0
    Фильмы 2013 [DVDrip, WEB-DLRip, HDrip] [ 1.46 GB ] 47 ронинов / 47 Ronin [2013 HDRip ] [/ ] Ворон Скачать
    2 | 0
    3D Фильмы [ 8.5 GB ] 47 ронинов в 3D / 47 Ronin in 3D [2013 BDRip 1080p + Оригинал] Анаглиф slaventi-69 Скачать
    1 | 0
    Фильмы 2013 [DVDrip, WEB-DLRip, HDrip] [ 2.17 GB ] 47 ронинов / 47 Ronin [2013 HDRip[] Ворон Скачать
    1 | 0
    Фильмы [HD 720p, 1080p] (Хороший звук DUB, MVO) [ 5.89 GB ] 47 ронинов / 47 Ronin [2013 BDRip 720p] DUB potroks Скачать
    4 | 0


    >> Регистрируемся здесь <<






    Отзывы и комментарии о схеме читаем и пишем здесь: ---> Отзывы и комментарии о схеме

    Новые благодарочки в телеграм довольных пользователей:
    скриншот   скриншот   скриншот   скриншот   скриншот

    21-03-2014 10:50 47 ронинов Скачать торрент  

    Перевод когда будет???pb.wtf



    21-03-2014 16:59 47 ронинов Скачать торрент  

    Как фильм? и перевод нормальный?pb.wtf



    22-03-2014 08:02 47 ронинов Скачать торрент  

    а с этим переводом что не так?pb.wtf



    25-03-2014 14:48 47 ронинов Скачать торрент  

    Огромное спасибо!Не могу удержаться.Качаю.Очень хотелось нормального качества,но любопытство взяло свое!pb.wtf



    25-03-2014 21:18 47 ронинов Скачать торрент  

    Мне понравился фильм)pb.wtf



    03-04-2014 09:44 47 ронинов Скачать торрент  

    На один раз, но не более! Сюжет нудный и отстойный...pb.wtf



      Дорогой пользователь! Огромная просьба, поблагодарите релизера, оцените раздачу и оставьте свои комментарий, если Вы скачали 47 ронинов через торрент бесплатно! Внесите свою лепту в развитие PiratBit!
      Комментировать посты могут только пользователи прошедшие не сложную регистрацию
      Показать сообщения:    

      47 ронинов через торрент
      Скачать бесплатно 47 ронинов
      47 ронинов скачать торрент
      47 ронинов смотреть онлайн
      Cкачать фильм 47 ронинов бесплатно
      47 ронинов скачать торрент в хорошем качестве
      47 ронинов смотреть онлайн бесплатно в хорошем качестве


      Вы не можете начинать темы
      Вы не можете отвечать на сообщения
      Вы не можете редактировать свои сообщения
      Вы не можете удалять свои сообщения
      Вы не можете голосовать в опросах
      Вы не можете прикреплять файлы к сообщениям
      Вы можете скачивать файлы