Ссылка на приватное зеркало всего за 1$. Внимание количество ограничено!!!

iTunes

1+1

iTunes

мы

WEB-DL

1

iTunes

Чернобыль

iTunes

Ральф против интернета

Лицензия

ПШазам

Лицензия

Оно 2

Лицензия

30
pack

Вам бонус

ВАЖНО

!!Акция!!

Alien_RageХит недели

RePack

Resident Evil 21

ИГРА 18+

pack

RePack

jed

!!Акция!!

Alien_Rage

RePack

fifa19

RePack

Assassins Creed: Odyssey

RePack

NEED FOR SPEED™ PAYBACK

3 сезон

9 сезон

Бесстыжие 9 сезон

Все сериалы

все сериалы на PB.wtf

RePack

FAR CRY 5
Ребята, катастрофически не хватает 1900р. для оплаты серверов за Октябрь (всвязи с блокировками трафик упал в 3 раза), 1-2р., выручайте.
  

Не сдавайся / Restless (Гас Ван Сент / Gus Van Sant) [2011, США, драма, мелодрама, BDRip-AVC,Профессиональный (многоголосый, закадровый) pb.wtf

Не сдавайся через торрент pb.wtf

Размер: 2.47 GB | Добавлен: 5 лет 8 мес. назад | Торрент скачан:53 раза
Скачать  

20-03-2014 16:38 Не сдавайся Скачать торрент  

Не сдавайся / Restless
Год выпуска: 2011
Страна: США
Жанр: драма, мелодрама
Продолжительность: 01:31:03
Перевод: Профессиональный (многоголосый, закадровый) + Оригинальная дорожка
Субтитры: Русские (полные), Украинские (полные), Английские (полные)
Режиссер: Гас Ван Сент / Gus Van Sant
В ролях: Генри Хоппер (Enoch Brae), Миа Васиковска (Annabel Cotton), Рё Касэ (Hiroshi Takahashi), Скайлер Фиск (Elizabeth Cotton), Люсия Струс (Rachel Cotton), Джейн Адамс (Mabel), Пол Парсон (Edward), Томас Лодердейл (Minister), Кристофер Д. Хардер (Funeral Director), Морган Ли (Driver), Кеннет Л. Петерсон (CT Technician), Уильям Дж. Эгглстон (X-Ray Technician)
Описание:
Энок, переживший клиническую смерть и потерявший в автокатастрофе родителей, знакомится на похоронах с Аннабель, и вскоре между молодыми людьми завязываются романтические отношения. Позднее оказывается, что Аннабель смертельно больна. Юноша решает помочь любимой подготовиться к неизбежному.
kinopoisk.ru: 7.144 (8383)
imdb.com: 6.80 (11 527)
MPAA: PG-13 - Детям до 13 лет просмотр не желателен
Качество: BDRip-AVC
Формат: MKV
Видео кодек: AVC
Аудио кодек: AC3
Видео: AVC, 1280x690 (1.855), 2531 kbps, 23,976 fps, 0,120 bpp
Аудио №1: русский / AC3 / 5.1 / 48 kHz / 640 kbps / 16 bit ||
Аудио №2: английский / AC3 / 5.1 / 48 kHz / 640 kbps / 16 bit

Общее
Уникальный идентификатор : 178050898954994705426826247590417404357 (0x85F35B153369C16BB2478719206211C5)
Полное имя : E:закачкиNe.Sdavaisya.2011.DUAL.BDRip.720p.h264.AC3.-HQ-ViDEO.mkv
Формат : Matroska
Версия формата : Version 2
Размер файла : 2,47 Гбайт
Продолжительность : 1 ч. 31 м.
Общий поток : 3889 Кбит/сек
Дата кодирования : UTC 2012-04-12 13:15:12
Программа кодирования : mkvmerge v5.0.1 ('Es ist Sommer') built on Nov 6 2011 16:23:40
Библиотека кодирования : libebml v1.2.2 + libmatroska v1.3.0

Видео
Идентификатор : 1
Формат : AVC
Формат/Информация : Advanced Video Codec
Профиль формата : High@L4.1
Параметр CABAC формата : Да
Параметр ReFrames формата : 4 кадра
Идентификатор кодека : V_MPEG4/ISO/AVC
Продолжительность : 1 ч. 31 м.
Битрейт : 2532 Кбит/сек
Ширина : 1280 пикселей
Высота : 690 пикселей
Соотношение сторон : 1,85:1
Режим частоты кадров : Постоянный
Частота кадров : 23,976 кадра/сек
Цветовое пространство : YUV
Субдискретизация насыщенности : 4:2:0
Битовая глубина : 8 бит
Тип развёртки : Прогрессивная
Бит/(Пиксели*Кадры) : 0.120
Размер потока : 1,61 Гбайт (65%)
Библиотека кодирования : x264 core 116 r2057 0ba8a9c
Настройки программы : cabac=1 / ref=3 / deblock=1:-3:-3 / analyse=0x3:0x133 / me=umh / subme=10 / psy=1 / psy_rd=1.00:0.00 / mixed_ref=1 / me_range=32 / chroma_me=1 / trellis=2 / 8x8dct=1 / cqm=0 / deadzone=21,11 / fast_pskip=0 / chroma_qp_offset=-2 / threads=18 / sliced_threads=0 / nr=0 / decimate=0 / interlaced=0 / bluray_compat=0 / constrained_intra=0 / bframes=7 / b_pyramid=2 / b_adapt=2 / b_bias=0 / direct=3 / weightb=1 / open_gop=0 / weightp=2 / keyint=250 / keyint_min=23 / scenecut=40 / intra_refresh=0 / rc_lookahead=40 / rc=crf / mbtree=0 / crf=17.0 / qcomp=0.65 / qpmin=0 / qpmax=40 / qpstep=4 / vbv_maxrate=50000 / vbv_bufsize=50000 / crf_max=0.0 / nal_hrd=none / ip_ratio=1.25 / pb_ratio=1.25 / aq=1:0.65
Язык : English
Default : Да
Forced : Нет

Аудио #1
Идентификатор : 2
Формат : AC-3
Формат/Информация : Audio Coding 3
Расширение режима : CM (complete main)
Параметр Endianness формата : Big
Идентификатор кодека : A_AC3
Продолжительность : 1 ч. 31 м.
Вид битрейта : Постоянный
Битрейт : 640 Кбит/сек
Каналы : 6 каналов
Расположение каналов : Front: L C R, Side: L R, LFE
Частота : 48,0 КГц
Битовая глубина : 16 бит
Метод сжатия : С потерями
Размер потока : 417 Мбайт (16%)
Заголовок : MVO
Язык : Russian
Default : Нет
Forced : Нет

Аудио #2
Идентификатор : 3
Формат : AC-3
Формат/Информация : Audio Coding 3
Расширение режима : CM (complete main)
Параметр Endianness формата : Big
Идентификатор кодека : A_AC3
Продолжительность : 1 ч. 31 м.
Вид битрейта : Постоянный
Битрейт : 640 Кбит/сек
Каналы : 6 каналов
Расположение каналов : Front: L C R, Side: L R, LFE
Частота : 48,0 КГц
Битовая глубина : 16 бит
Метод сжатия : С потерями
Размер потока : 417 Мбайт (16%)
Заголовок : English
Язык : English
Default : Да
Forced : Нет

Текст #1
Идентификатор : 4
Формат : UTF-8
Идентификатор кодека : S_TEXT/UTF8
Идентификатор кодека/Информация : UTF-8 Plain Text
Заголовок : Русские
Язык : Russian
Default : Да
Forced : Нет

Текст #2
Идентификатор : 5
Формат : UTF-8
Идентификатор кодека : S_TEXT/UTF8
Идентификатор кодека/Информация : UTF-8 Plain Text
Заголовок : Украинские
Язык : Ukrainian
Default : Нет
Forced : Нет

Текст #3
Идентификатор : 6
Формат : UTF-8
Идентификатор кодека : S_TEXT/UTF8
Идентификатор кодека/Информация : UTF-8 Plain Text
Заголовок : Английские
Язык : English
Default : Нет
Forced : Нет

Меню
00:00:00.000 : en:00:00:00.000
00:06:18.753 : en:00:06:18.753
00:10:49.524 : en:00:10:49.524
00:14:31.996 : en:00:14:31.996
00:21:06.098 : en:00:21:06.098
00:25:48.088 : en:00:25:48.088
00:30:08.306 : en:00:30:08.306
00:35:37.052 : en:00:35:37.052
00:41:05.630 : en:00:41:05.630
00:46:50.558 : en:00:46:50.558
00:54:19.673 : en:00:54:19.673
00:58:33.176 : en:00:58:33.176
01:03:21.840 : en:01:03:21.840
01:07:28.211 : en:01:07:28.211
01:11:49.430 : en:01:11:49.430
01:18:17.776 : en:01:18:17.776
Релиз:
Рип от DON!
pb.wtf



Скачать Не сдавайся через торрент http://ecx.images-amazon.com/images/I/51yg68W25FL.jpg Скачать фильм Не сдавайся через торрент бесплантно в хорошем качестве Описание: Энок, переживший клиническую смерть и потерявший в автокатастрофе родителей, знакомится на похоронах с Аннабель, и вскоре между ... 10 10 6
Торрент: Зарегистрирован [2014-03-20 16:38] · скачан: 53 раз
Статус: √ проверено
Размер: 2.47 GB
Как cкачать? Как скачать Не сдавайся через торрент | qTorrent

% Раздел Тема Автор DL S | L
Арт-хаус и авторское кино [ 4.25 GB ] Не сдавайся / Restless [2011 DVD5] R5 «Columbia/Sony» voovaz Скачать
1 | 0

28-11-2019 20:33  

Отключить всю рекламу на сайте

    Дорогой пользователь! Огромная просьба, поблагодарите релизера, оцените раздачу и оставьте свои комментарий, если Вы скачали Не сдавайся через торрент бесплатно! Внесите свою лепту в развитие PiratBit!
    Комментировать посты могут только пользователи прошедшие не сложную регистрацию
    Показать сообщения:    

    Не сдавайся через торрент
    Скачать бесплатно Не сдавайся
    Не сдавайся скачать торрент
    Не сдавайся смотреть онлайн
    Cкачать фильм Не сдавайся бесплатно
    Не сдавайся скачать торрент в хорошем качестве
    Не сдавайся смотреть онлайн бесплатно в хорошем качестве


    Вы не можете начинать темы
    Вы не можете отвечать на сообщения
    Вы не можете редактировать свои сообщения
    Вы не можете удалять свои сообщения
    Вы не можете голосовать в опросах
    Вы не можете прикреплять файлы к сообщениям
    Вы можете скачивать файлы