Ссылка на приватное зеркало нашего сайта всего за 1$. Внимание количество ограничено!!!

2 сезон

iTunes

1 сезон

1

iTunes

iTunes

iTunes

1 сезон

RePack

30

ИГРА 18+

pack

ВАЖНО

!!Акция!!

Alien_RageХит недели

RePack

MK11
pack

Забери бонус

RePack

jed

!!Акция!!

Alien_Rage

RePack

fifa19

RePack

Assassins Creed: Odyssey

RePack

NEED FOR SPEED™ PAYBACK

4 сезон

9 сезон

Бесстыжие 9 сезон

Все сериалы

все сериалы на PB.wtf

RePack

FAR CRY 5
  

Нюхач /1-8 серии из 8 (Артем Литвиненко) [2013 г., Детектив, SATRip] pb.wtf

Нюхач через торрент pb.wtf

Раздают: 2 [ 0 KB/s ]
Размер: 5.2 GB | Добавлен: 6 лет 7 мес. назад | Торрент скачан:1010 раз
Скачать  

20-11-2013 14:23 Нюхач Скачать торрент  

Нюхач
Год выпуска: 2013
Страна: Украина
Жанр: Детектив
Продолжительность: 8 x ~ 00:45:00

Режиссер: Артем Литвиненко
Продюссер: Виктор Мирский, Андрей Ризванюк
Сценарий: Артем Литвиненко, Андрей Бабик

Премьера в мире: 11 ноября 2013

http://www.kinopoisk.ru/film/684449/

В ролях: Кирилл Кяро, Иван Оганесян, Мария Аниканова, Нина Гогаева, Борис Каморзин, Тимофей Каратаев, Виолетта Трыкова, Тарас Готовцев, Денис Мартынов, Александр Новосёлов, Дмитрий Усов, Пётр Крылов (III),

Описание: Его зовут Нюхач. Он обладает сверхчувствительным обонянием, для него не существует тайн и нераскрываемых преступлений. По запаху Нюхач может рассказать все и даже больше о любом человеке: что он ел, с кем он спал, есть ли у него алиби. Уникальная способность Нюхача – его дар и проклятие одновременно. С одной стороны, он раскрывает самые изощренные и запутанные преступления, знает все сокровенные тайны политиков, бизнесменов и криминальных авторитетов. С другой - Нюхач абсолютно беззащитен перед окружающим миром, переполненным всевозможными запахами. Он не умеет строить отношения ни с женщинами, ни с близкими людьми, потому что знает о них все: ему невозможно сделать сюрприз, его нельзя обмануть, любой посторонний запах оттолкнет его от самого романтического свидания. У него сложная, но интересная жизнь...

Качество: SATRip
Формат: AVI
Видео кодек: XviD
Аудио кодек: MP3
Видео: Xvid 720x368, 25.00fps, ~1660 Kbps
Аудио: MPEG Audio Layer 3 48000Hz stereo 192kbps
Релиз от: nnm-club





Общее
Полное имя : E:Niuhach.2013.XviD.SATRip�1.Niuhach.2013.XviD.SATRip..avi
Формат : AVI
Формат/Информация : Audio Video Interleave
Размер файла : 646 Мбайт
Продолжительность : 48 м.
Общий поток : 1863 Кбит/сек
Программа кодирования : VirtualDubMod 1.5.10.3 | www.virtualdub-fr.org || (build 2550/release)
Библиотека кодирования : VirtualDubMod build 2550/release

Видео
Идентификатор : 0
Формат : MPEG-4 Visual
Профиль формата : Advanced Simple@L5
Параметр BVOP формата : 1
Параметр QPel формата : Нет
Параметр GMC формата : Без точки перехода
Параметр матрицы формата : Default (H.263)
Идентификатор кодека : XVID
Идентификатор кодека/Подсказка : XviD
Продолжительность : 48 м.
Битрейт : 1661 Кбит/сек
Ширина : 720 пикселей
Высота : 368 пикселей
Соотношение сторон : 1,957
Частота кадров : 25,000 кадров/сек
Цветовое пространство : YUV
Субдискретизация насыщенности : 4:2:0
Битовая глубина : 8 бит
Тип развёртки : Прогрессивная
Метод сжатия : С потерями
Бит/(Пиксели*Кадры) : 0.251
Размер потока : 576 Мбайт (89%)
Библиотека кодирования : XviD 73

Аудио
Идентификатор : 1
Формат : MPEG Audio
Версия формата : Version 1
Профиль формата : Layer 3
Идентификатор кодека : 55
Идентификатор кодека/Подсказка : MP3
Продолжительность : 48 м.
Вид битрейта : Постоянный
Битрейт : 192 Кбит/сек
Каналы : 2 канала
Частота : 48,0 КГц
Метод сжатия : С потерями
Размер потока : 66,6 Мбайт (10%)
Выравнивание : Соединение по промежуткам
Продолжительность промежутка : 40 мс. (1,00 видеокадр)
Время предзагрузки промежутка : 504 мс.
Библиотека кодирования : LAME3.99r
Настройки программы : -m s -V 4 -q 0 -lowpass 18.6 -b 192

Общее
Полное имя : E:Niuhach.2013.XviD.SATRip�2.Niuhach.2013.XviD.SATRip..avi
Формат : AVI
Формат/Информация : Audio Video Interleave
Размер файла : 623 Мбайт
Продолжительность : 46 м.
Общий поток : 1868 Кбит/сек
Программа кодирования : VirtualDubMod 1.5.10.3 | www.virtualdub-fr.org || (build 2550/release)
Библиотека кодирования : VirtualDubMod build 2550/release

Видео
Идентификатор : 0
Формат : MPEG-4 Visual
Профиль формата : Advanced Simple@L5
Параметр BVOP формата : 1
Параметр QPel формата : Нет
Параметр GMC формата : Без точки перехода
Параметр матрицы формата : Default (H.263)
Идентификатор кодека : XVID
Идентификатор кодека/Подсказка : XviD
Продолжительность : 46 м.
Битрейт : 1667 Кбит/сек
Ширина : 720 пикселей
Высота : 368 пикселей
Соотношение сторон : 1,957
Частота кадров : 25,000 кадров/сек
Цветовое пространство : YUV
Субдискретизация насыщенности : 4:2:0
Битовая глубина : 8 бит
Тип развёртки : Прогрессивная
Метод сжатия : С потерями
Бит/(Пиксели*Кадры) : 0.252
Размер потока : 556 Мбайт (89%)
Библиотека кодирования : XviD 73

Аудио
Идентификатор : 1
Формат : MPEG Audio
Версия формата : Version 1
Профиль формата : Layer 3
Идентификатор кодека : 55
Идентификатор кодека/Подсказка : MP3
Продолжительность : 46 м.
Вид битрейта : Постоянный
Битрейт : 192 Кбит/сек
Каналы : 2 канала
Частота : 48,0 КГц
Метод сжатия : С потерями
Размер потока : 64,0 Мбайт (10%)
Выравнивание : Соединение по промежуткам
Продолжительность промежутка : 40 мс. (1,00 видеокадр)
Время предзагрузки промежутка : 504 мс.
Библиотека кодирования : LAME3.99r
Настройки программы : -m s -V 4 -q 0 -lowpass 18.6 -b 192

pb.wtf



Скачать Нюхач через торрент http://pic.kartinco.top/images/6/qzpnt.jpg Скачать фильм Нюхач через торрент бесплантно в хорошем качестве Описание: Его зовут Нюхач. Он обладает сверхчувствительным обонянием, для него не существует тайн и нераскрываемых преступлений. По запаху ... 9.5 10 54
Info! Золотая раздача, скачанное не засчитывается.
Торрент: Зарегистрирован [2014-03-20 20:29] · скачан: 1 010 раз
Статус: √ проверено
Размер: 5.2 GB
Как cкачать? Как скачать Нюхач через торрент | qTorrent

% Раздел Тема Автор DL S | L
Наши сериалы [ 4.71 GB ] Нюхач / Сезон: 4 / Серии: 1-8 из 8 [2019 SATRip-AVC] aleksan55 Скачать
1 | 0
Наши сериалы [ 6.1 GB ] Нюхач / Сезон: 4 / Серии: 1-8 из 8 [2019 HDTVRip-AVC] bober100 Скачать
1 | 0
Наши сериалы [ 10.27 GB ] Нюхач / Сезон: 4 / Серии: 1-8 из 8 [2019 HDTVRip 720p] bober100 Скачать
1 | 0
Наши сериалы [ 5.01 GB ] Нюхач / Сезон: 4 / Серии: 1-8 из 8 [2019 HDTVRip] bober100 Скачать
1 | 0
Наши сериалы [ 4.69 GB ] Нюхач / Сезон: 4 / Серии: 1-8 из 8 [2019 SATRip] bober100 Скачать
1 | 0
Наши сериалы [ 16.95 GB ] Нюхач / Сезон: 4 / Серии: 1-8 из 8 [2019 HDTV 1080i] bober100 Скачать
2 | 0
Наши сериалы [ 13.74 GB ] Нюхач / Сезон 3 / Серии 1-8 из 8 [2017 WEB-DL 1080p] bober100 Скачать
1 | 0

28-11-2019 20:33  

Отключить всю рекламу на сайте

15-12-2013 22:21 Нюхач Скачать торрент  

Будем надеяться что тут с файлами всё нормально pb.wtf



15-12-2013 22:30 Нюхач Скачать торрент  

Вот тут серии отлично везде идут/мотаются и полные pb.wtf



01-06-2020 14:22 Нюхач Скачать торрент  

привет,дайте пожалуйста скачать первый сезон,за ранее спасибоpb.wtf



    Дорогой пользователь! Огромная просьба, поблагодарите релизера, оцените раздачу и оставьте свои комментарий, если Вы скачали Нюхач через торрент бесплатно! Внесите свою лепту в развитие PiratBit!
    Комментировать посты могут только пользователи прошедшие не сложную регистрацию
    Показать сообщения:    

    Нюхач через торрент
    Скачать бесплатно Нюхач
    Нюхач скачать торрент
    Нюхач смотреть онлайн
    Cкачать фильм Нюхач бесплатно
    Нюхач скачать торрент в хорошем качестве
    Нюхач смотреть онлайн бесплатно в хорошем качестве


    Вы не можете начинать темы
    Вы не можете отвечать на сообщения
    Вы не можете редактировать свои сообщения
    Вы не можете удалять свои сообщения
    Вы не можете голосовать в опросах
    Вы не можете прикреплять файлы к сообщениям
    Вы можете скачивать файлы