Ссылка на приватное зеркало нашего сайта всего за 1$. Внимание количество ограничено!!!

2 сезон

iTunes

1 сезон

1

2 сезон

2 сезон

iTunes

1 сезон

RePack

30

Ultimate

ВАЖНО

ИГРА 18+

pack

RePack

MK11
pack

Забери бонус

RePack

jed

!!Акция!!

Alien_Rage

RePack

fifa19

RePack

Assassins Creed: Odyssey

RePack

NEED FOR SPEED™ PAYBACK

4 сезон

9 сезон

Бесстыжие 9 сезон

Все сериалы

все сериалы на PB.wtf

RePack

FAR CRY 5
  

Тайный дневник девушки по вызову / Secret Diary Of A Call Girl / Сезон: 1 / Серии: 1-8 (8) (Ян Деманж, Сьюзэн Талли) [2007 г., драма, эротика, DVDRip 400p] MVO МузТВ pb.wtf

Тайный дневник девушки по вызову через торрент pb.wtf

Размер: 3.51 GB | Добавлен: 7 лет 1 мес. назад | Торрент скачан:181 раз
Скачать  

16-10-2013 14:21 Тайный дневник девушки по вызову Скачать торрент  

Тайный дневник девушки по вызову / Secret Diary of a Call Girl
It's her bisiness doing pleasure with you.
Год выпуска: 2007
Страна: Великобритания
Жанр: драма, эротика
Продолжительность: 00:23:10
Перевод: Профессиональный (многоголосый, закадровый) (МузТВ)
Субтитры: English (внешние)
Режиссер: Ян Деманж / Yann Demange, Сьюзэн Талли / Susan Tully, Питер Лайдон / Peter Lydon
В ролях: Билли Пайпер (Belle), Иддо Голдберг (Ben), Шери Лунги (Stephanie), Эшли Мадекве (Bambi), Джо Бобин (Jackie), Лили Джеймс (Poppy), Джеймс Д’Арси (Duncan), Каллум Блу (Alex), Дэвид Доусон (Byron), Надя Кэмерон-Блэйки (Camilla), Джемма Чан (Charlotte), Эйс Бхатти (Ashok)
Описание:
Ханна совсем не такая? как кажется на первый взгляд. С виду успешная, законопослушная, молодая особа, любящая повеселиться с друзьями. Но она же одновременно и Бэлль, одна из самых высокооплачиваемых элитных девушек по вызову в Лондоне. У Ханны и Бэлль одни и те же цели, они любят секс, они любят деньги.
Сериал основан на книге The Intimate Adventures of a London Call Girl (Интимный дневник. Записки Лондонской проститутки) автор - Belle de Jour / Бель де Жур
Рейтинг
kinopoisk.ru: 7.606 (4043)
imdb.com: 7.00 (4643)
Возрастное ограничение: 18+
Качество: DVDRip
Формат: AVI
Видео кодек: XviD
Аудио кодек: AC3
Видео: XviD, 720x400 (16:9), 1998 kbps, 23,976 fps, 0,289 bpp
Аудио №1: AC3 / 2.0 / 48 kHz / 192 kbps / 16 bit |МузТВ|
Аудио №2: AC3 / 5.1 / 48 kHz / 448 kbps / 16 bit |Original|
Релиз:
Над релизом работали: ЛП, Allo-4ka, 2Dem
Спасибо Led, D2T за помощь в подготовке релиза

Первый сезон | Второй сезон

General
Complete name : F:videoseriesSecret Diary of a Call GirlSecret Diary Season 1Secret.Diary.s01e01.rus.eng_filmgate.tv.avi
Format : AVI
Format/Info : Audio Video Interleave
File size : 440 MiB
Duration : 23mn 10s
Overall bit rate : 2 652 Kbps
Writing application : VirtualDubMod 1.5.10.2 (build 2540/release)
Writing library : VirtualDubMod build 2540/release

Video
ID : 0
Format : MPEG-4 Visual
Format profile : Advanced Simple@L5
Format settings, BVOP : 2
Format settings, QPel : No
Format settings, GMC : No warppoints
Format settings, Matrix : Default (MPEG)
Codec ID : XVID
Codec ID/Hint : XviD
Duration : 23mn 10s
Bit rate : 1 998 Kbps
Width : 720 pixels
Height : 400 pixels
Display aspect ratio : 16:9
Frame rate : 23.976 fps
Color space : YUV
Chroma subsampling : 4:2:0
Bit depth : 8 bits
Scan type : Progressive
Compression mode : Lossy
Bits/(Pixel*Frame) : 0.289
Stream size : 331 MiB (75%)
Writing library : XviD 1.2.0.dev49

Audio #1
ID : 1
Format : AC-3
Format/Info : Audio Coding 3
Mode extension : CM (complete main)
Codec ID : 2000
Duration : 23mn 9s
Bit rate mode : Constant
Bit rate : 192 Kbps
Channel(s) : 2 channels
Channel positions : Front: L R
Sampling rate : 48.0 KHz
Bit depth : 16 bits
Compression mode : Lossy
Stream size : 31.8 MiB (7%)
Alignment : Split accross interleaves
Interleave, duration : 42 ms (1.00 video frame)
Interleave, preload duration : 500 ms

Audio #2
ID : 2
Format : AC-3
Format/Info : Audio Coding 3
Mode extension : CM (complete main)
Codec ID : 2000
Duration : 23mn 9s
Bit rate mode : Constant
Bit rate : 448 Kbps
Channel(s) : 6 channels
Channel positions : Front: L C R, Side: L R, LFE
Sampling rate : 48.0 KHz
Bit depth : 16 bits
Compression mode : Lossy
Stream size : 74.2 MiB (17%)
Alignment : Split accross interleaves
Interleave, duration : 42 ms (1.00 video frame)
Interleave, preload duration : 500 ms
pb.wtf



Скачать Тайный дневник девушки по вызову через торрент http://i6.imageban.ru/out/2013/10/16/614da0fc26966708e4bb1e802f2acb59.png Скачать фильм Тайный дневник девушки по вызову через торрент бесплантно в хорошем качестве Описание: Ханна совсем не такая? как кажется на первый взгляд. С виду успешная, законопослушная, молодая особа, любящая повеселиться с ... 5 10 1
Info! Золотая раздача, скачанное не засчитывается.
Торрент: Зарегистрирован [2013-10-16 14:21] · скачан: 181 раз
Статус: √ проверено
Размер: 3.51 GB
Как cкачать? Как скачать Тайный дневник девушки по вызову через торрент | qTorrent

% Раздел Тема Автор DL S | L
Зарубежные сериалы [ 3.33 GB ] Тайный дневник девушки по вызову / Secret Diary Of A Call Girl / Сезон: 2 / Серии: 1-8 [2008 эротика DVDRip 400p] MVO МузТВ Messa-fan Скачать
1 | 0


Последний раз редактировалось: Messa-fan (2013-10-16 16:51), всего редактировалось 6 раз(а)

28-11-2019 20:33  

Отключить всю рекламу на сайте

16-10-2013 14:33 Тайный дневник девушки по вызову Скачать торрент  

Максимально возможное качество.pb.wtf



    Дорогой пользователь! Огромная просьба, поблагодарите релизера, оцените раздачу и оставьте свои комментарий, если Вы скачали Тайный дневник девушки по вызову через торрент бесплатно! Внесите свою лепту в развитие PiratBit!
    Комментировать посты могут только пользователи прошедшие не сложную регистрацию
    Показать сообщения:    

    Тайный дневник девушки по вызову через торрент
    Скачать бесплатно Тайный дневник девушки по вызову
    Тайный дневник девушки по вызову скачать торрент
    Тайный дневник девушки по вызову смотреть онлайн
    Cкачать фильм Тайный дневник девушки по вызову бесплатно
    Тайный дневник девушки по вызову скачать торрент в хорошем качестве
    Тайный дневник девушки по вызову смотреть онлайн бесплатно в хорошем качестве


    Вы не можете начинать темы
    Вы не можете отвечать на сообщения
    Вы не можете редактировать свои сообщения
    Вы не можете удалять свои сообщения
    Вы не можете голосовать в опросах
    Вы не можете прикреплять файлы к сообщениям
    Вы можете скачивать файлы