Ссылка на приватное зеркало нашего сайта всего за 1$. Внимание количество ограничено!!!

2 сезон

iTunes

1 сезон

1

2 сезон

2 сезон

iTunes

1 сезон

RePack

30

Ultimate

ВАЖНО

ИГРА 18+

pack

RePack

MK11
pack

Забери бонус

RePack

jed

!!Акция!!

Alien_Rage

RePack

fifa19

RePack

Assassins Creed: Odyssey

RePack

NEED FOR SPEED™ PAYBACK

4 сезон

9 сезон

Бесстыжие 9 сезон

Все сериалы

все сериалы на PB.wtf

RePack

FAR CRY 5
  

Заточенные кепки / Острые козырьки / Peaky Blinders / Сезон:1 / Серии: 1-6 из 6 (Отто Баферст, Том Харпер) [2013 г., драма, WEB-DLRip] MVO [Alexfilm] pb.wtf

Заточенные кепки через торрент pb.wtf

Размер: 4.05 GB | Добавлен: 6 лет 8 мес. назад | Торрент скачан:651 раз
Скачать  

12-10-2013 11:21 Заточенные кепки Скачать торрент  

Заточенные кепки / Острые козырьки / Peaky Blinders
Год выпуска: 2013
Страна: Великобритания
Жанр: драма
Продолжительность: 6 ~ 01:00:00
Перевод: Профессиональный (многоголосый, закадровый) (AlexFilm)

Режиссер: Отто Баферст, Том Харпер

Премьера в мире: 12 сентября 2013
Кинопоиск: 8.375(261)

В ролях: Киллиан Мерфи, Пол Андерсон, Иддо Голдберг, Хелен МакКрори, Сэм Нилл, Аннабелль Уоллис, Джо Коул, Элфи Эванс-Мис, Джек Хартли, Кевин Меткалф

Описание: Британский сериал о криминальном мире Бирмингема 20-х годов прошлого века, в котором многолюдная семья Шелби стала одной из самых жестоких и влиятельных гангстерских банд послевоенного времени. Фирменным знаком группировки, промышлявшей грабежами и азартными играми, стали зашитые в козырьки лезвия.
Качество:WEB-DLRip
Формат: AVI
Видео кодек: XviD
Аудио кодек: MP3
Видео (1,4,5,6 Серии): 720x384 (1.88:1), 25 fps, XviD build 50 ~1444 kbps avg, 0.21 bit/pixel
Видео (2,3 Серии): 720x400 (1.80:1), 25 fps, XviD build 50 ~1394 kbps avg, 0.19 bit/pixel
Аудио#1: 48 kHz, MPEG Layer 3, 2 ch, ~128.00 kbps avg (Rus)
Аудио#2: 48 kHz, MPEG Layer 3, 2 ch, ~128.00 kbps avg (Eng)
Релиз от:










Внимание! Раздача ведётся путём добавления новых серий; при каждом добавлении создётся новый торрент. Чтобы начать докачку новой серии, пользователям необходимо сделать следующее:
1. Остановить скачивание,
2. Удалить старый торрент у себя из клиента (старые серии удалять не надо),
3. Скачать новый торрент и запустить его у себя в клиенте вместо старого, при этом указать клиенту путь в старую папку куда и должно происходить скачивание новых серий.
Ваш клиент при этом должен произвести хеширование (проверку) старой папки (если не производит сам - помогите ему сделать это), и будет докачивать только те серии которых у вас ещё нет. Старые серии при этом не удаляются, а продолжают раздаваться!
Eсли вы уже удалили старые серии, то предотвратить повторную закачку старых серий можно, отжав галочку в соответсвующих местах при запуске нового торрента. По возможности, желательно не удалять старые серии как можно дольше чтобы релизёр не столько продолжал раздавать старые серии, а смог сконцентрироваться на новых.
Общее
Полное имя : D:СкаченныеСкаченныеPeaky.Blinders.s1.WEB-DLRip.Rus.Eng.AlexFilmPeaky.Blinders.s01e01.WEB-DLRip.Rus.Eng.AlexFilm.avi
Формат : AVI
Формат/Информация : Audio Video Interleave
Размер файла : 700 Мбайт
Продолжительность : 57 м.
Общий поток : 1715 Кбит/сек
Название фильма : Peaky Blinders 1x01 @ AlexFilm
Программа кодирования : VirtualDubMod 1.5.10.2 (build 2542/release)

Видео
Идентификатор : 0
Формат : MPEG-4 Visual
Профиль формата : Advanced Simple@L5
Параметр BVOP формата : 1
Параметр QPel формата : Нет
Параметр GMC формата : Без точки перехода
Параметр матрицы формата : Default (MPEG)
Идентификатор кодека : XVID
Идентификатор кодека/Подсказка : XviD
Продолжительность : 57 м.
Битрейт : 1445 Кбит/сек
Ширина : 720 пикселей
Высота : 384 пикселя
Соотношение сторон : 1,85:1
Частота кадров : 25,000 кадров/сек
Цветовое пространство : YUV
Субдискретизация насыщенности : 4:2:0
Битовая глубина : 8 бит
Тип развёртки : Прогрессивная
Метод сжатия : С потерями
Бит/(Пиксели*Кадры) : 0.209
Размер потока : 590 Мбайт (84%)
Библиотека кодирования : XviD 1.2.1 (UTC 2008-12-04)

Аудио #1
Идентификатор : 1
Формат : MPEG Audio
Версия формата : Version 1
Профиль формата : Layer 3
Режим : Joint stereo
Расширение режима : MS Stereo
Идентификатор кодека : 55
Идентификатор кодека/Подсказка : MP3
Продолжительность : 57 м.
Вид битрейта : Постоянный
Битрейт : 128 Кбит/сек
Каналы : 2 канала
Частота : 48,0 КГц
Метод сжатия : С потерями
Размер потока : 52,3 Мбайт (7%)
Выравнивание : Соединение по промежуткам
Продолжительность промежутка : 40 мс. (1,00 видеокадр)
Время предзагрузки промежутка : 504 мс.
Заголовок : Russian (AlexFilm)

Аудио #2
Идентификатор : 2
Формат : MPEG Audio
Версия формата : Version 1
Профиль формата : Layer 3
Режим : Joint stereo
Расширение режима : MS Stereo
Идентификатор кодека : 55
Идентификатор кодека/Подсказка : MP3
Продолжительность : 57 м.
Вид битрейта : Постоянный
Битрейт : 128 Кбит/сек
Каналы : 2 канала
Частота : 48,0 КГц
Метод сжатия : С потерями
Размер потока : 52,3 Мбайт (7%)
Выравнивание : Соединение по промежуткам
Продолжительность промежутка : 40 мс. (1,00 видеокадр)
Время предзагрузки промежутка : 504 мс.
Заголовок : English

Общее
Полное имя : D:СкаченныеСкаченныеPeaky.Blinders.s1.WEB-DLRip.Rus.Eng.AlexFilmPeaky.Blinders.s01e02.WEB-DLRip.Rus.Eng.AlexFilm.avi
Формат : AVI
Формат/Информация : Audio Video Interleave
Размер файла : 701 Мбайт
Продолжительность : 58 м.
Общий поток : 1665 Кбит/сек
Название фильма : Peaky Blinders 1x02 @ AlexFilm
Программа кодирования : VirtualDubMod 1.5.10.2 (build 2542/release)

Видео
Идентификатор : 0
Формат : MPEG-4 Visual
Профиль формата : Advanced Simple@L5
Параметр BVOP формата : 1
Параметр QPel формата : Нет
Параметр GMC формата : Без точки перехода
Параметр матрицы формата : Default (MPEG)
Идентификатор кодека : XVID
Идентификатор кодека/Подсказка : XviD
Продолжительность : 58 м.
Битрейт : 1395 Кбит/сек
Ширина : 720 пикселей
Высота : 400 пикселей
Соотношение сторон : 16:9
Частота кадров : 25,000 кадров/сек
Цветовое пространство : YUV
Субдискретизация насыщенности : 4:2:0
Битовая глубина : 8 бит
Тип развёртки : Прогрессивная
Метод сжатия : С потерями
Бит/(Пиксели*Кадры) : 0.194
Размер потока : 587 Мбайт (84%)
Библиотека кодирования : XviD 1.2.1 (UTC 2008-12-04)

Аудио #1
Идентификатор : 1
Формат : MPEG Audio
Версия формата : Version 1
Профиль формата : Layer 3
Режим : Joint stereo
Расширение режима : MS Stereo
Идентификатор кодека : 55
Идентификатор кодека/Подсказка : MP3
Продолжительность : 58 м.
Вид битрейта : Постоянный
Битрейт : 128 Кбит/сек
Каналы : 2 канала
Частота : 48,0 КГц
Метод сжатия : С потерями
Размер потока : 53,9 Мбайт (8%)
Выравнивание : Соединение по промежуткам
Продолжительность промежутка : 40 мс. (1,00 видеокадр)
Время предзагрузки промежутка : 504 мс.
Заголовок : Russian (AlexFilm)

Аудио #2
Идентификатор : 2
Формат : MPEG Audio
Версия формата : Version 1
Профиль формата : Layer 3
Режим : Joint stereo
Расширение режима : MS Stereo
Идентификатор кодека : 55
Идентификатор кодека/Подсказка : MP3
Продолжительность : 58 м.
Вид битрейта : Постоянный
Битрейт : 128 Кбит/сек
Каналы : 2 канала
Частота : 48,0 КГц
Метод сжатия : С потерями
Размер потока : 53,9 Мбайт (8%)
Выравнивание : Соединение по промежуткам
Продолжительность промежутка : 40 мс. (1,00 видеокадр)
Время предзагрузки промежутка : 504 мс.
Заголовок : English

Общее
Полное имя : D:СкаченныеСкаченныеPeaky.Blinders.s1.WEB-DLRip.Rus.Eng.AlexFilmPeaky.Blinders.s01e03.WEB-DLRip.Rus.Eng.AlexFilm.avi
Формат : AVI
Формат/Информация : Audio Video Interleave
Размер файла : 701 Мбайт
Продолжительность : 56 м.
Общий поток : 1736 Кбит/сек
Название фильма : Peaky Blinders 1x03 @ AlexFilm
Программа кодирования : VirtualDubMod 1.5.10.2 (build 2542/release)

Видео
Идентификатор : 0
Формат : MPEG-4 Visual
Профиль формата : Advanced Simple@L5
Параметр BVOP формата : 1
Параметр QPel формата : Нет
Параметр GMC формата : Без точки перехода
Параметр матрицы формата : Default (MPEG)
Идентификатор кодека : XVID
Идентификатор кодека/Подсказка : XviD
Продолжительность : 56 м.
Битрейт : 1466 Кбит/сек
Ширина : 720 пикселей
Высота : 400 пикселей
Соотношение сторон : 16:9
Частота кадров : 25,000 кадров/сек
Цветовое пространство : YUV
Субдискретизация насыщенности : 4:2:0
Битовая глубина : 8 бит
Тип развёртки : Прогрессивная
Метод сжатия : С потерями
Бит/(Пиксели*Кадры) : 0.204
Размер потока : 592 Мбайт (84%)
Библиотека кодирования : XviD 1.2.1 (UTC 2008-12-04)

Аудио #1
Идентификатор : 1
Формат : MPEG Audio
Версия формата : Version 1
Профиль формата : Layer 3
Режим : Joint stereo
Расширение режима : MS Stereo
Идентификатор кодека : 55
Идентификатор кодека/Подсказка : MP3
Продолжительность : 56 м.
Вид битрейта : Постоянный
Битрейт : 128 Кбит/сек
Каналы : 2 канала
Частота : 48,0 КГц
Метод сжатия : С потерями
Размер потока : 51,7 Мбайт (7%)
Выравнивание : Соединение по промежуткам
Продолжительность промежутка : 40 мс. (1,00 видеокадр)
Время предзагрузки промежутка : 504 мс.
Заголовок : Russian (AlexFilm)

Аудио #2
Идентификатор : 2
Формат : MPEG Audio
Версия формата : Version 1
Профиль формата : Layer 3
Режим : Joint stereo
Идентификатор кодека : 55
Идентификатор кодека/Подсказка : MP3
Продолжительность : 56 м.
Вид битрейта : Постоянный
Битрейт : 128 Кбит/сек
Каналы : 2 канала
Частота : 48,0 КГц
Метод сжатия : С потерями
Размер потока : 51,7 Мбайт (7%)
Выравнивание : Соединение по промежуткам
Продолжительность промежутка : 40 мс. (1,00 видеокадр)
Время предзагрузки промежутка : 504 мс.
Заголовок : English

Общее
Полное имя : D:СкаченныеСкаченныеPeaky.Blinders.s1.WEB-DLRip.Rus.Eng.AlexFilmPeaky.Blinders.s01e04.WEB-DLRip.Rus.Eng.AlexFilm.avi
Формат : AVI
Формат/Информация : Audio Video Interleave
Размер файла : 701 Мбайт
Продолжительность : 59 м.
Общий поток : 1652 Кбит/сек
Название фильма : Peaky Blinders 1x04 @ AlexFilm
Программа кодирования : VirtualDubMod 1.5.10.2 (build 2542/release)

Видео
Идентификатор : 0
Формат : MPEG-4 Visual
Профиль формата : Advanced Simple@L5
Параметр BVOP формата : 1
Параметр QPel формата : Нет
Параметр GMC формата : Без точки перехода
Параметр матрицы формата : Default (MPEG)
Идентификатор кодека : XVID
Идентификатор кодека/Подсказка : XviD
Продолжительность : 59 м.
Битрейт : 1381 Кбит/сек
Ширина : 720 пикселей
Высота : 384 пикселя
Соотношение сторон : 1,85:1
Частота кадров : 25,000 кадров/сек
Цветовое пространство : YUV
Субдискретизация насыщенности : 4:2:0
Битовая глубина : 8 бит
Тип развёртки : Прогрессивная
Метод сжатия : С потерями
Бит/(Пиксели*Кадры) : 0.200
Размер потока : 586 Мбайт (84%)
Библиотека кодирования : XviD 1.2.1 (UTC 2008-12-04)

Аудио #1
Идентификатор : 1
Формат : MPEG Audio
Версия формата : Version 1
Профиль формата : Layer 3
Режим : Joint stereo
Расширение режима : MS Stereo
Идентификатор кодека : 55
Идентификатор кодека/Подсказка : MP3
Продолжительность : 59 м.
Вид битрейта : Постоянный
Битрейт : 128 Кбит/сек
Каналы : 2 канала
Частота : 48,0 КГц
Метод сжатия : С потерями
Размер потока : 54,3 Мбайт (8%)
Выравнивание : Соединение по промежуткам
Продолжительность промежутка : 40 мс. (1,00 видеокадр)
Время предзагрузки промежутка : 504 мс.
Заголовок : Russian (AlexFilm)

Аудио #2
Идентификатор : 2
Формат : MPEG Audio
Версия формата : Version 1
Профиль формата : Layer 3
Режим : Joint stereo
Идентификатор кодека : 55
Идентификатор кодека/Подсказка : MP3
Продолжительность : 59 м.
Вид битрейта : Постоянный
Битрейт : 128 Кбит/сек
Каналы : 2 канала
Частота : 48,0 КГц
Метод сжатия : С потерями
Размер потока : 54,3 Мбайт (8%)
Выравнивание : Соединение по промежуткам
Продолжительность промежутка : 40 мс. (1,00 видеокадр)
Время предзагрузки промежутка : 504 мс.
Заголовок : English

Общее
Полное имя : D:СкаченныеСкаченныеPeaky.Blinders.s1.WEB-DLRip.Rus.Eng.AlexFilmPeaky.Blinders.s01e05.WEB-DLRip.Rus.Eng.AlexFilm.avi
Формат : AVI
Формат/Информация : Audio Video Interleave
Размер файла : 681 Мбайт
Продолжительность : 57 м.
Общий поток : 1658 Кбит/сек
Название фильма : Peaky Blinders 1x05 @ AlexFilm
Программа кодирования : VirtualDubMod 1.5.10.2 (build 2542/release)

Видео
Идентификатор : 0
Формат : MPEG-4 Visual
Профиль формата : Advanced Simple@L5
Параметр BVOP формата : 1
Параметр QPel формата : Нет
Параметр GMC формата : Без точки перехода
Параметр матрицы формата : Default (MPEG)
Идентификатор кодека : XVID
Идентификатор кодека/Подсказка : XviD
Продолжительность : 57 м.
Битрейт : 1388 Кбит/сек
Ширина : 720 пикселей
Высота : 384 пикселя
Соотношение сторон : 1,85:1
Частота кадров : 25,000 кадров/сек
Цветовое пространство : YUV
Субдискретизация насыщенности : 4:2:0
Битовая глубина : 8 бит
Тип развёртки : Прогрессивная
Метод сжатия : С потерями
Бит/(Пиксели*Кадры) : 0.201
Размер потока : 570 Мбайт (84%)
Библиотека кодирования : XviD 1.2.1 (UTC 2008-12-04)

Аудио #1
Идентификатор : 1
Формат : MPEG Audio
Версия формата : Version 1
Профиль формата : Layer 3
Режим : Joint stereo
Расширение режима : MS Stereo
Идентификатор кодека : 55
Идентификатор кодека/Подсказка : MP3
Продолжительность : 57 м.
Вид битрейта : Постоянный
Битрейт : 128 Кбит/сек
Каналы : 2 канала
Частота : 48,0 КГц
Метод сжатия : С потерями
Размер потока : 52,6 Мбайт (8%)
Выравнивание : Соединение по промежуткам
Продолжительность промежутка : 40 мс. (1,00 видеокадр)
Время предзагрузки промежутка : 504 мс.
Заголовок : Russian (AlexFilm)

Аудио #2
Идентификатор : 2
Формат : MPEG Audio
Версия формата : Version 1
Профиль формата : Layer 3
Режим : Joint stereo
Идентификатор кодека : 55
Идентификатор кодека/Подсказка : MP3
Продолжительность : 57 м.
Вид битрейта : Постоянный
Битрейт : 128 Кбит/сек
Каналы : 2 канала
Частота : 48,0 КГц
Метод сжатия : С потерями
Размер потока : 52,6 Мбайт (8%)
Выравнивание : Соединение по промежуткам
Продолжительность промежутка : 40 мс. (1,00 видеокадр)
Время предзагрузки промежутка : 504 мс.
Заголовок : English

Общее
Полное имя : D:СкаченныеСкаченныеPeaky.Blinders.s1.WEB-DLRip.Rus.Eng.AlexFilmPeaky.Blinders.s01e06.WEB-DLRip.Rus.Eng.AlexFilm.avi
Формат : AVI
Формат/Информация : Audio Video Interleave
Размер файла : 660 Мбайт
Продолжительность : 55 м.
Общий поток : 1667 Кбит/сек
Название фильма : Peaky Blinders 1x06 @ AlexFilm
Программа кодирования : VirtualDubMod 1.5.10.2 (build 2542/release)

Видео
Идентификатор : 0
Формат : MPEG-4 Visual
Профиль формата : Advanced Simple@L5
Параметр BVOP формата : 1
Параметр QPel формата : Нет
Параметр GMC формата : Без точки перехода
Параметр матрицы формата : Default (MPEG)
Идентификатор кодека : XVID
Идентификатор кодека/Подсказка : XviD
Продолжительность : 55 м.
Битрейт : 1397 Кбит/сек
Ширина : 720 пикселей
Высота : 384 пикселя
Соотношение сторон : 1,85:1
Частота кадров : 25,000 кадров/сек
Цветовое пространство : YUV
Субдискретизация насыщенности : 4:2:0
Битовая глубина : 8 бит
Тип развёртки : Прогрессивная
Метод сжатия : С потерями
Бит/(Пиксели*Кадры) : 0.202
Размер потока : 553 Мбайт (84%)
Библиотека кодирования : XviD 1.2.1 (UTC 2008-12-04)

Аудио #1
Идентификатор : 1
Формат : MPEG Audio
Версия формата : Version 1
Профиль формата : Layer 3
Режим : Joint stereo
Расширение режима : MS Stereo
Идентификатор кодека : 55
Идентификатор кодека/Подсказка : MP3
Продолжительность : 55 м.
Вид битрейта : Постоянный
Битрейт : 128 Кбит/сек
Каналы : 2 канала
Частота : 48,0 КГц
Метод сжатия : С потерями
Размер потока : 50,7 Мбайт (8%)
Выравнивание : Соединение по промежуткам
Продолжительность промежутка : 40 мс. (1,00 видеокадр)
Время предзагрузки промежутка : 504 мс.
Заголовок : Russian (AlexFilm)

Аудио #2
Идентификатор : 2
Формат : MPEG Audio
Версия формата : Version 1
Профиль формата : Layer 3
Режим : Joint stereo
Идентификатор кодека : 55
Идентификатор кодека/Подсказка : MP3
Продолжительность : 55 м.
Вид битрейта : Постоянный
Битрейт : 128 Кбит/сек
Каналы : 2 канала
Частота : 48,0 КГц
Метод сжатия : С потерями
Размер потока : 50,7 Мбайт (8%)
Выравнивание : Соединение по промежуткам
Продолжительность промежутка : 40 мс. (1,00 видеокадр)
Время предзагрузки промежутка : 504 мс.
Заголовок : English
Добавлена 6-ая серия! Просьба перекачать торрент!
pb.wtf



Скачать Заточенные кепки через торрент http://4.firepic.org/4/images/2013-10/12/s1cm5mpnmpwz.jpg Скачать фильм Заточенные кепки через торрент бесплантно в хорошем качестве Описание: Британский сериал о криминальном мире Бирмингема 20-х годов прошлого века, в котором многолюдная семья Шелби стала одной из самых ... 9.7 10 19
Торрент: Зарегистрирован [2014-03-20 21:00] · скачан: 651 раз
Статус: √ проверено
Размер: 4.05 GB
Как cкачать? Как скачать Заточенные кепки через торрент | qTorrent

% Раздел Тема Автор DL S | L
Зарубежные сериалы [ 25 GB ] Заточенные кепки / Острые козырьки / Peaky Blinders / Сезон: 4 / Серии: 1-6 из 6 [2017 BDRip 1080p] MVO [LostFilm] bober100 Скачать
1 | 0
Зарубежные сериалы [ 3.18 GB ] Заточенные кепки / Острые козырьки / Peaky Blinders / Сезон: 1 / Серии 1-6 из 6 [2013 WEB-DLRip] MVO [LostFilm] Cталин Скачать
1 | 0
Зарубежные сериалы [ 9.83 GB ] Заточенные кепки / Острые козырьки / Peaky Blinders / Сезон: 4 / Серии: 1-6 из 6 [2017 WEB-DLRip 1080p] [MVO] killermax2013 Скачать
1 | 0
Зарубежные сериалы [ 3.67 GB ] Заточенные кепки / Острые козырьки / Peaky Blinders / Сезон: 4 / Серии: 1-6 из 6 [2017 HDTVRip-AVC] многоголосый [AlexFilm] R.G.Generalfilm White Smoke Скачать
1 | 0
Зарубежные сериалы [ 7.72 GB ] Заточенные кепки / Острые козырьки / Peaky Blinders / Сезон: 4 / Серии: 1-6 из 6 [2017 HDTVRip 720p][MVO] nn99nn Скачать
1 | 0
Зарубежные сериалы [ 5.93 GB ] Заточенные кепки / Острые козырьки / Peaky Blinders / Сезон:4 / Серии: 1-6 из 6 [2017 WEBRip 720p] [DVO] killermax2013 Скачать
1 | 0
Зарубежные сериалы [ 10.57 GB ] Заточенные кепки / Острые козырьки / Peaky Blinders / Сезон: 4 / Серии: 1-6 из 6 [2017 HDTVRip 1080p] [Sub] killermax2013 Скачать
1 | 0


Последний раз редактировалось: francuz (2013-11-16 01:44), всего редактировалось 20 раз(а)

28-11-2019 20:33  

Отключить всю рекламу на сайте

16-10-2013 15:19 Заточенные кепки Скачать торрент  

Добавлена 6-ая серия! Просьба перекачать торрент!pb.wtf





Последний раз редактировалось: francuz (2013-11-16 01:45), всего редактировалось 2 раз(а)

04-11-2013 01:56 Заточенные кепки Скачать торрент  

francuz
http://puu.sh/58ayj.jpg тег не закрытый проверь.pb.wtf



11-11-2013 18:43 Заточенные кепки Скачать торрент  

Бирмингем, 1919 год. Город захватила преступность, похоть и алкоголь. Фактически этим местом правит банда «Острые козырьки», во главе с многолюдной семьей Шелби. Главная статья их дохода — букмекерская контора, переживающая не лучшие времена. Поэтому банда стремится к открытию новых способов заработка, как криминальных, так и законных. Главный герой — Томми Шелби (Киллиан Мерфи), дерзкий и расчетливый глава банды, страдающий от поствоенного синдрома. Ему противостоит новый начальник полиции Кэмпбелл (Сэм Нил). Он верит в закон и в Бога, патриот своей страны, с большой охотой берущийся за борьбу с преступниками.

Еще одна приятная находка с британских земель. Богатые декорации, прекрасная атмосфера и прекрасные актеры. Ближайшим аналогом этой истории с некоторой натяжкой можно было бы назвать «Подпольную Империю», но события тут развиваются намного стремительней. Главные герои проворачивают все новые аферы, преодолевают на пути препятствия и поднимаются по криминальной лестнице все выше и выше. Противников у них достаточно, в том числе и тех, кто не воспринимает их всерьез. Для Томми это очередной вызов, и глядя на его решительность, ждешь самых серьезных свершений с его стороны. По древней британской традиции сезон краткосрочен, что благоприятно сказывается на динамике шоу. Одна лишь проблема — как бы потом нам не захотелось большего.
Оценка - 5/5©film.ru
pb.wtf



08-12-2013 15:32 Заточенные кепки Скачать торрент  

Когда следующий сезон? pb.wtf



    Дорогой пользователь! Огромная просьба, поблагодарите релизера, оцените раздачу и оставьте свои комментарий, если Вы скачали Заточенные кепки через торрент бесплатно! Внесите свою лепту в развитие PiratBit!
    Комментировать посты могут только пользователи прошедшие не сложную регистрацию
    Показать сообщения:    

    Заточенные кепки через торрент
    Скачать бесплатно Заточенные кепки
    Заточенные кепки скачать торрент
    Заточенные кепки смотреть онлайн
    Cкачать фильм Заточенные кепки бесплатно
    Заточенные кепки скачать торрент в хорошем качестве
    Заточенные кепки смотреть онлайн бесплатно в хорошем качестве


    Вы не можете начинать темы
    Вы не можете отвечать на сообщения
    Вы не можете редактировать свои сообщения
    Вы не можете удалять свои сообщения
    Вы не можете голосовать в опросах
    Вы не можете прикреплять файлы к сообщениям
    Вы можете скачивать файлы