Ссылка на приватное зеркало нашего сайта всего за 1$. Внимание количество ограничено!!!

2 сезон

iTunes

1 сезон

1

2 сезон

2 сезон

iTunes

1 сезон

RePack

30

Ultimate

ВАЖНО

ИГРА 18+

pack

RePack

MK11
pack

Забери бонус

RePack

jed

!!Акция!!

Alien_Rage

RePack

fifa19

RePack

Assassins Creed: Odyssey

RePack

NEED FOR SPEED™ PAYBACK

4 сезон

9 сезон

Бесстыжие 9 сезон

Все сериалы

все сериалы на PB.wtf

RePack

FAR CRY 5
  

Даю год / I Give It a Year (Дэн Мазер / Dan Mazer) [2013, Великобритания, мелодрама, комедия, BDRip-AVC] Dub pb.wtf

Даю год через торрент pb.wtf

Размер: 2.18 GB | Добавлен: 7 лет 6 мес. назад | Торрент скачан:286 раз
Скачать  

13-05-2013 08:50 Даю год Скачать торрент  

Даю год / I Give It a Year
Страна: Великобритания
Студия: StudioCanal, Translux, Working Title Films
Жанр: мелодрама, комедия
Год выпуска: 2013
Продолжительность: 01:37:25

Перевод: Профессиональный (дублированный)
Оригинальная аудиодорожка: английская
Cубтитры: французские

Режиссер: Дэн Мазер / Dan Mazer
В ролях: Минни Драйвер, Роуз Бирн, Рейф Сполл, Анна Фэрис, Саймон Бэйкер, Стивен Мерчант, Джейсон Флеминг, Сенем Темиз, Оливия Колман, Анна Скеллерн

Описание: Первый год семейной жизни не всегда проходит так, как думалось до свадьбы. Джош и Нэт – самые счастливые люди на свете, ведь сегодня день их свадьбы. Они стоят у алтаря рука об руку и не замечают вещи, очевидной для всех присутствующих. Дело в том, что на свете трудно найти людей менее подходящих для семейной жизни, чем жених и невеста. Увы, Джош и Нат никак не могут найти общего языка, не умеют идти на компромиссы и совершенно не хотят прислушиваться к мнению друг друга...



Качество видео: BDRip-AVC
Исходник: Blu-Ray (1080p)
Контейнер: MKV
Видео кодек: MPEG-4 AVC
Аудио кодек: AC3
Видео: MPEG-4 AVC, 2436 kbps , 1200x502 (2.40:1), 23.976 fps, 0.169 bit/pixel
Аудио 1: русский (AC3, 6 ch, 48 kHz, 384 kbps)
Аудио 2: английский (AC3, 6 ch, 48 kHz, 384 kbps)
Формат субтитров: softsub (SRT)
Главы: есть
General
Unique ID : 18433638555685562116094301692 (0x8AADE57966748CCF8BD66C34E2E015FC)
Complete name : D:Daju.god.2013.x264.BDRip.(AVC).fanatus.mkv
Format : Matroska
Format version : Version 2
File size : 2.18 GiB
Duration : 1h 37mn
Overall bit rate : 3 204 Kbps
Movie name : I Give It a Year (2013) - fanatus
Encoded date : UTC 2013-05-10 17:14:37
Writing application : mkvmerge v3.4.0 ('Rapunzel') сборка от May 15 2010 09:38:20
Writing library : libebml v0.8.0 + libmatroska v0.9.0

Video
ID : 1
Format : AVC
Format/Info : Advanced Video Codec
Format profile : High@L4.1
Format settings, CABAC : Yes
Format settings, ReFrames : 10 frames
Codec ID : V_MPEG4/ISO/AVC
Duration : 1h 37mn
Bit rate : 2 436 Kbps
Width : 1 200 pixels
Height : 502 pixels
Display aspect ratio : 2.40:1
Frame rate : 23.976 fps
Color space : YUV
Chroma subsampling : 4:2:0
Bit depth : 8 bits
Scan type : Progressive
Bits/(Pixel*Frame) : 0.169
Stream size : 1.61 GiB (74%)
Title : I Give It a Year (2013)
Writing library : x264 core 132 r2323+704+51 d571b1c tMod [8-bit@all X86]
Encoding settings : cabac=1 / ref=10 / deblock=1:-3:-2 / analyse=0x3:0x113 / me=umh / subme=11 / psy=1 / fade_compensate=0.00 / psy_rd=0.99:0.00 / mixed_ref=1 / me_range=48 / chroma_me=1 / trellis=2 / 8x8dct=1 / cqm=0 / deadzone=21,11 / fast_pskip=0 / chroma_qp_offset=-2 / threads=16 / lookahead_threads=3 / sliced_threads=0 / nr=0 / decimate=0 / interlaced=0 / bluray_compat=0 / constrained_intra=0 / fgo=0 / bframes=10 / b_pyramid=2 / b_adapt=2 / b_bias=0 / direct=3 / weightb=1 / open_gop=0 / weightp=2 / keyint=250 / keyint_min=23 / scenecut=40 / intra_refresh=0 / rc_lookahead=240 / rc=2pass / mbtree=0 / bitrate=2436 / ratetol=1.0 / qcomp=0.70 / qpmin=0 / qpmax=51 / qpstep=4 / cplxblur=20.0 / qblur=0.5 / vbv_maxrate=50000 / vbv_bufsize=62500 / nal_hrd=none / ip_ratio=1.40 / pb_ratio=1.30 / aq=3:0.85 / aq-sensitivity=10.00 / aq-factor=1.00:1.00:1.00 / aq2=0 / aq3=0
Language : English
Default : Yes
Forced : No

Audio #1
ID : 2
Format : AC-3
Format/Info : Audio Coding 3
Mode extension : CM (complete main)
Format settings, Endianness : Big
Codec ID : A_AC3
Duration : 1h 37mn
Bit rate mode : Constant
Bit rate : 384 Kbps
Channel(s) : 6 channels
Channel positions : Front: L C R, Side: L R, LFE
Sampling rate : 48.0 KHz
Bit depth : 16 bits
Compression mode : Lossy
Stream size : 268 MiB (12%)
Title : Dub
Language : Russian
Default : Yes
Forced : No

Audio #2
ID : 3
Format : AC-3
Format/Info : Audio Coding 3
Mode extension : CM (complete main)
Format settings, Endianness : Big
Codec ID : A_AC3
Duration : 1h 37mn
Bit rate mode : Constant
Bit rate : 384 Kbps
Channel(s) : 6 channels
Channel positions : Front: L C R, Side: L R, LFE
Sampling rate : 48.0 KHz
Bit depth : 16 bits
Compression mode : Lossy
Stream size : 268 MiB (12%)
Title : Original
Language : English
Default : No
Forced : No

Text
ID : 4
Format : UTF-8
Codec ID : S_TEXT/UTF8
Codec ID/Info : UTF-8 Plain Text
Language : French
Default : No
Forced : No

Menu
00:00:00.000 : :Chapter 01
00:00:33.491 : :Chapter 02
00:10:28.169 : :Chapter 03
00:23:03.882 : :Chapter 04
00:34:08.588 : :Chapter 05
00:47:15.541 : :Chapter 06
01:00:37.091 : :Chapter 07
01:11:31.704 : :Chapter 08
01:20:38.250 : :Chapter 09
x264 [info]: 1200x502p 1:1 @ 24000/1001 fps (cfr)
x264 [info]: frame I:1456 Avg QP:15.51 size: 85141
x264 [info]: frame P:29475 Avg QP:18.69 size: 26639
x264 [info]: frame B:109222 Avg QP:20.39 size: 7958
x264 [info]: consecutive B-frames: 1.7% 1.7% 7.7% 22.5% 17.7% 40.0% 4.9% 1.9% 0.8% 0.6% 0.5%
x264 [info]: mb I I16..4: 4.6% 77.9% 17.5%
x264 [info]: mb P I16..4: 0.8% 8.3% 1.2% P16..4: 33.5% 36.4% 12.5% 0.0% 0.0% skip: 7.3%
x264 [info]: mb B I16..4: 0.1% 0.7% 0.1% B16..8: 32.7% 18.5% 3.0% direct: 4.4% skip:40.3% L0:42.9% L1:44.5% BI:12.6%
x264 [info]: 8x8 transform intra:78.7% inter:60.8%
x264 [info]: direct mvs spatial:98.5% temporal:1.5%
x264 [info]: coded y,uvDC,uvAC intra: 85.0% 85.6% 67.2% inter: 21.9% 22.5% 10.8%
x264 [info]: i16 v,h,dc,p: 41% 15% 4% 40%
x264 [info]: i8 v,h,dc,ddl,ddr,vr,hd,vl,hu: 15% 8% 7% 9% 12% 13% 11% 12% 12%
x264 [info]: i4 v,h,dc,ddl,ddr,vr,hd,vl,hu: 19% 10% 7% 7% 12% 13% 11% 10% 10%
x264 [info]: i8c dc,h,v,p: 37% 24% 20% 18%
x264 [info]: Weighted P-Frames: Y:1.8% UV:1.2%
x264 [info]: ref P L0: 44.0% 10.1% 19.3% 6.3% 6.0% 3.9% 4.0% 2.1% 2.1% 1.9% 0.3% 0.0%
x264 [info]: ref B L0: 70.7% 12.7% 6.1% 3.4% 2.4% 2.0% 1.7% 0.7% 0.3%
x264 [info]: ref B L1: 93.1% 6.9%
x264 [info]: kb/s:2433.74
x264 [info]: encoded 140153 frames, 9.592 fps, 2433.74 kb/s, 1695.9 MB
pb.wtf



Скачать Даю год через торрент http://i46.fastpic.ru/big/2013/0509/28/81db16771270daf22ba9b7905e5d1828.png Скачать фильм Даю год через торрент бесплантно в хорошем качестве Описание: Первый год семейной жизни не всегда проходит так, как думалось до свадьбы. Джош и Нэт – самые счастливые люди на свете, ведь ... 8.6 10 7
Info! Золотая раздача, скачанное не засчитывается.
Торрент: Зарегистрирован [2013-05-13 08:50] · скачан: 286 раз
Статус: √ проверено
Размер: 2.18 GB
Как cкачать? Как скачать Даю год через торрент | qTorrent

% Раздел Тема Автор DL S | L
Фильмы 2013 [DVDrip, WEB-DLRip, HDrip] [ 1.76 GB ] Даю год / I Give It a Year [2013 HDRip-AVC] Dub + Original sokol_ok Скачать
2 | 0
Фильмы [HD 720p, 1080p] (Хороший звук DUB, MVO) [ 7.94 GB ] Даю год / I Give It a Year [2013 BDRip 1080p] DUB [ лицензия ] + ENG Loc387 Скачать
1 | 1

28-11-2019 20:33  

Отключить всю рекламу на сайте

    Дорогой пользователь! Огромная просьба, поблагодарите релизера, оцените раздачу и оставьте свои комментарий, если Вы скачали Даю год через торрент бесплатно! Внесите свою лепту в развитие PiratBit!
    Комментировать посты могут только пользователи прошедшие не сложную регистрацию
    Показать сообщения:    

    Даю год через торрент
    Скачать бесплатно Даю год
    Даю год скачать торрент
    Даю год смотреть онлайн
    Cкачать фильм Даю год бесплатно
    Даю год скачать торрент в хорошем качестве
    Даю год смотреть онлайн бесплатно в хорошем качестве


    Вы не можете начинать темы
    Вы не можете отвечать на сообщения
    Вы не можете редактировать свои сообщения
    Вы не можете удалять свои сообщения
    Вы не можете голосовать в опросах
    Вы не можете прикреплять файлы к сообщениям
    Вы можете скачивать файлы