Ссылка на приватное зеркало нашего сайта всего за 1$. Внимание количество ограничено!!!

2 сезон

iTunes

1 сезон

1

iTunes

iTunes

iTunes

1 сезон

RePack

30

ИГРА 18+

pack

ВАЖНО

!!Акция!!

Alien_RageХит недели

RePack

MK11
pack

Забери бонус

RePack

jed

!!Акция!!

Alien_Rage

RePack

fifa19

RePack

Assassins Creed: Odyssey

RePack

NEED FOR SPEED™ PAYBACK

4 сезон

9 сезон

Бесстыжие 9 сезон

Все сериалы

все сериалы на PB.wtf

RePack

FAR CRY 5
  

Коллекционер 2 / The Collection (Маркус Данстэн) [2012 г., ужасы, боевик, триллер, BDRip 720p, DUB, лицензия] pb.wtf

Коллекционер 2 через торрент pb.wtf

Размер: 4.5 GB | Добавлен: 7 лет 8 мес. назад | Торрент скачан:327 раз
Скачать  

27-01-2013 18:34 Коллекционер 2 Скачать торрент  

Коллекционер 2 / The Collection

Год выпуска: 2012
Страна: США
Жанр: ужасы, боевик, триллер
Продолжительность: 01:21:38
Перевод: Дубляж, Лицензия

Режиссер: Маркус Данстэн

В ролях: Джош Стюарт, Эмма Фитцпатрик, Кристофер МакДональд, Ли Тергесен, Тим Гриффин, Андре Ройо, Рэндолл Арчер, Шеннон Кэйн, Брэндон, Молале, Эрин Вэй

Описание: Бывалому медвежатнику Аркину чудесным образом удалось выбраться из ловушек, расставленных по дому загадочным маньяком Коллекционером. Аркин был уверен, что он никогда в жизни больше не встретится с Коллекциoнером, но cудьба распоряжается иначе.

Качество: BDRip 720p
Формат: MKV
Видео кодек: H.26x
Аудио кодек: DTS
Видео: 1280 x 536 (2.388) at 24.000 fps AVC at 4717 Кбит/сек
Аудио#1: DTS at 1510 Кбит/сек 6 каналов, 48,0 КГц DUB
Аудио#2: DTS at 1510 Кбит/сек 6 каналов, 48,0 КГц ENG





Общее
Уникальный идентификатор : 192160237974933217008891788171771646449 (0x9090B7346C18D426A32380D8AF1811F1)
Полное имя : D:ФильмыKollekcioner.2.2012.D.BDRip.720p.mkv
Формат : Matroska
Версия формата : Version 2
Размер файла : 4,50 Гбайт
Продолжительность : 1 ч. 21 м.
Общий поток : 7893 Кбит/сек
Дата кодирования : UTC 2013-01-25 14:31:18
Программа кодирования : mkvmerge v5.2.0 ('I can't explain') built on Dec 18 2011 18:12:03
Библиотека кодирования : libebml v1.2.3 + libmatroska v1.3.0

Видео
Идентификатор : 1
Формат : AVC
Формат/Информация : Advanced Video Codec
Профиль формата : High@L4.1
Параметр CABAC формата : Да
Параметр ReFrames формата : 5 кадров
Идентификатор кодека : V_MPEG4/ISO/AVC
Продолжительность : 1 ч. 21 м.
Битрейт : 4717 Кбит/сек
Ширина : 1280 пикселей
Высота : 536 пикселей
Соотношение сторон : 2,40:1
Частота кадров : 24,000 кадра/сек
Цветовое пространство : YUV
Субдискретизация насыщенности : 4:2:0
Битовая глубина : 8 бит
Тип развёртки : Прогрессивная
Бит/(Пиксели*Кадры) : 0.286
Размер потока : 2,69 Гбайт (60%)
Библиотека кодирования : x264 core 129 r2230 1cffe9f
Настройки программы : cabac=1 / ref=5 / deblock=1:-1:-1 / analyse=0x3:0x113 / me=hex / subme=7 / psy=1 / psy_rd=1.00:0.15 / mixed_ref=1 / me_range=16 / chroma_me=1 / trellis=1 / 8x8dct=1 / cqm=0 / deadzone=21,11 / fast_pskip=1 / chroma_qp_offset=-3 / threads=12 / lookahead_threads=2 / sliced_threads=0 / nr=0 / decimate=1 / interlaced=0 / bluray_compat=0 / constrained_intra=0 / bframes=3 / b_pyramid=2 / b_adapt=1 / b_bias=0 / direct=1 / weightb=1 / open_gop=0 / weightp=2 / keyint=250 / keyint_min=24 / scenecut=40 / intra_refresh=0 / rc_lookahead=40 / rc=crf / mbtree=1 / crf=17.5 / qcomp=0.60 / qpmin=0 / qpmax=69 / qpstep=4 / ip_ratio=1.40 / aq=1:1.00
Язык : English
Default : Да
Forced : Да

Аудио #1
Идентификатор : 2
Формат : DTS
Формат/Информация : Digital Theater Systems
Идентификатор кодека : A_DTS
Продолжительность : 1 ч. 21 м.
Вид битрейта : Постоянный
Битрейт : 1510 Кбит/сек
Каналы : 6 каналов
Расположение каналов : Front: L C R, Side: L R, LFE
Частота : 48,0 КГц
Битовая глубина : 16 бит
Метод сжатия : С потерями
Размер потока : 882 Мбайт (19%)
Язык : Russian
Default : Да
Forced : Да

Аудио #2
Идентификатор : 3
Формат : DTS
Формат/Информация : Digital Theater Systems
Идентификатор кодека : A_DTS
Продолжительность : 1 ч. 21 м.
Вид битрейта : Постоянный
Битрейт : 1510 Кбит/сек
Каналы : 6 каналов
Расположение каналов : Front: L C R, Side: L R, LFE
Частота : 48,0 КГц
Битовая глубина : 16 бит
Метод сжатия : С потерями
Размер потока : 882 Мбайт (19%)
Язык : English
Default : Нет
Forced : Нет


Коллекционер 2 скачать торрент


pb.wtf



Скачать Коллекционер 2 через торрент http://pic.kartinco.top/images/1/3rj4m3ojlh.png Скачать фильм Коллекционер 2 через торрент бесплантно в хорошем качестве Описание: Бывалому медвежатнику Аркину чудесным образом удалось выбраться из ловушек, расставленных по дому загадочным маньяком ... 9.2 10 5
Info! Золотая раздача, скачанное не засчитывается.
Торрент: Зарегистрирован [2013-01-28 16:31] · скачан: 327 раз
Статус: √ проверено
Размер: 4.5 GB
Как cкачать? Как скачать Коллекционер 2 через торрент | qTorrent

% Раздел Тема Автор DL S | L
Фильмы [HD 720p, 1080p] (Хороший звук DUB, MVO) [ 6.35 GB ] Коллекционер 2 / The Collection [2012 BDRip-HEVC 1080p ] [US-Transfer] DUB [] bober100 Скачать
1 | 0
Фильмы 2012 [ 1.36 GB ] Коллекционер 2 / The Collection [2012 DVDRip DUB лицензия] филиппок Скачать
1 | 0
Фильмы [HD 720p, 1080p] (Хороший звук DUB, MVO) [ 5.77 GB ] Коллекционер 2 / The Collection [2012 BDRip 720p лицензия] Ke$h@ Скачать
1 | 0
Фильмы [HD 720p, 1080p] (Хороший звук DUB, MVO) [ 11.31 GB ] Коллекционер 2 / The Collection [2012 BDRip 1080p DUB + Оригинал+Sub rus] Trava-HD Скачать
1 | 0
Фильмы 2012 [ 1.37 GB ] Коллекционер 2 / The Collection [2012 BDRip DUB / лицензия] Mr. Freeman Скачать
2 | 0
Фильмы (DVD фильмы) [ 5.75 GB ] Коллекционер 2 / The Collection [2012 DVD9] R5 voovaz Скачать
1 | 0
Фильмы (Blu-ray, BD-Remux, HDDVD) [ 22.08 GB ] Коллекционер 2 / The Collection [2012 Blu-Ray DUB лицензия] Pavlin Скачать
1 | 0


Последний раз редактировалось: Sудья (2013-01-28 16:31), всего редактировалось 2 раз(а)

28-11-2019 20:33  

Отключить всю рекламу на сайте

28-01-2013 16:16 Коллекционер 2 Скачать торрент  

Не удается скачать торрент файл, пишет "Выделенных вложений больше не существует. 404 File Not Found: The File files/bucg0p_598268513.[piratbit.cc].torrent does not exist."pb.wtf



28-01-2013 16:35 Коллекционер 2 Скачать торрент  

Andrey.U писал(а):

Не удается скачать торрент файл, пишет "Выделенных вложений больше не существует. 404 File Not Found: The File files/bucg0p_598268513.[piratbit.cc].torrent does not exist."

Торент файл перезалил, перехешируйте файл.pb.wtf



28-01-2013 17:02 Коллекционер 2 Скачать торрент  

Sудья писал(а):

Andrey.U писал(а):

Не удается скачать торрент файл, пишет "Выделенных вложений больше не существует. 404 File Not Found: The File files/bucg0p_598268513.[piratbit.cc].torrent does not exist."

Торент файл перезалил, перехешируйте файл.

Спасибо, теперь все норм.pb.wtf



04-02-2013 10:15 Коллекционер 2 Скачать торрент  

Крутой фильмец. Перевод впорядке, качество тоже.pb.wtf



    Дорогой пользователь! Огромная просьба, поблагодарите релизера, оцените раздачу и оставьте свои комментарий, если Вы скачали Коллекционер 2 через торрент бесплатно! Внесите свою лепту в развитие PiratBit!
    Комментировать посты могут только пользователи прошедшие не сложную регистрацию
    Показать сообщения:    

    Коллекционер 2 через торрент
    Скачать бесплатно Коллекционер 2
    Коллекционер 2 скачать торрент
    Коллекционер 2 смотреть онлайн
    Cкачать фильм Коллекционер 2 бесплатно
    Коллекционер 2 скачать торрент в хорошем качестве
    Коллекционер 2 смотреть онлайн бесплатно в хорошем качестве


    Вы не можете начинать темы
    Вы не можете отвечать на сообщения
    Вы не можете редактировать свои сообщения
    Вы не можете удалять свои сообщения
    Вы не можете голосовать в опросах
    Вы не можете прикреплять файлы к сообщениям
    Вы можете скачивать файлы