Ссылка на приватное зеркало нашего сайта всего за 1$. Внимание количество ограничено!!!

2 сезон

iTunes

1 сезон

1

2 сезон

2 сезон

iTunes

1 сезон

RePack

30

Ultimate

ВАЖНО

ИГРА 18+

pack

RePack

MK11
pack

Забери бонус

RePack

jed

!!Акция!!

Alien_Rage

RePack

fifa19

RePack

Assassins Creed: Odyssey

RePack

NEED FOR SPEED™ PAYBACK

4 сезон

9 сезон

Бесстыжие 9 сезон

Все сериалы

все сериалы на PB.wtf

RePack

FAR CRY 5
  

Коллекционер 2 / The Collection (Маркус Данстэн) [2012 г., ужасы, боевик, триллер, Blu-Ray, DUB, лицензия] pb.wtf

Коллекционер 2 через торрент pb.wtf

Размер: 22.08 GB | Добавлен: 7 лет 9 мес. назад | Торрент скачан:130 раз
Скачать  

25-01-2013 18:54 Коллекционер 2 Скачать торрент  

Коллекционер 2 / The Collection

Год выпуска: 2012
Страна: США
Жанр: ужасы, боевик, триллер
Продолжительность: 01:21:38
Перевод: Дубляж, Лицензия

Режиссер: Маркус Данстэн
Продюссер: Бретт Форбс, Мики Лиделл, Джули Ричардсон
Сценарий: Патрик Мелтон, Маркус Данстэн

Бюджет: $10 000 000
Премьера в мире: 21 сентября 2012

Мировой рейтинг IMDB 6.70 (2 909)


В ролях: Джош Стюарт, Эмма Фитцпатрик, Кристофер МакДональд, Ли Тергесен, Тим Гриффин, Андре Ройо, Рэндолл Арчер, Шеннон Кэйн, Брэндон Молале, Эрин Вэй, Василий Зотов, Нина Александрова, Валерий Сторожик, Василий Дахненко, Иван Жарков

Описание: Бывалому медвежатнику Аркину чудесным образом удалось выбраться из ловушек, расставленных по дому загадочным маньяком Коллекционером. Аркин был уверен, что он никогда в жизни больше не встретится с Коллекциoнером, но cудьба распоряжается иначе.

Качество: Blu-Ray
Формат: BDAV
Видео кодек: AVC
Аудио кодек: DTS, AC3
Видео: MPEG-4 AVC, ~ 30 Мбит/с, 1920х1080 (16:9), 24.0000 кадр/с
Аудио#1: Русский ( DTS-HD MA , 6 ch, 1509 Кбит/с, 48.0 КГц, 16 бит)
Аудио#2: Русский ( AC3, 6 ch, 448 Кбит/с, 48.0 КГц, 16 бит)
Аудио#3: Английский ( DTS-HD MA , 6 ch, 1509 Кбит/с, 48.0 КГц, 16 бит)
Аудио#4: Английский ( AC3, 6 ch, 448 Кбит/с, 48.0 КГц, 16 бит)
Субтитры: Русские

Общее
Идентификатор : 0 (0x0)
Полное имя : E:Kollekcioner.2.2012.D.BD.IRONCLUBBDMVSTREAM\00005.m2ts
Формат : BDAV
Формат/Информация : Blu-ray Video
Размер файла : 21,6 Гбайт
Продолжительность : 1 ч. 21 м.
Режим общего битрейта : Переменный
Общий поток : 37,9 Мбит/сек
Максимальный общий битрейт : 48,0 Мбит/сек

Видео
Идентификатор : 4113 (0x1011)
Идентификатор меню : 1 (0x1)
Формат : AVC
Формат/Информация : Advanced Video Codec
Профиль формата : High@L4.1
Параметр CABAC формата : Да
Параметр ReFrames формата : 4 кадра
Идентификатор кодека : 27
Продолжительность : 1 ч. 21 м.
Вид битрейта : Постоянный
Номинальный битрейт : 30,0 Мбит/сек
Ширина : 1920 пикселей
Высота : 1080 пикселей
Соотношение сторон : 16:9
Частота кадров : 24,000 кадра/сек
Стандарт вещания : NTSC
Цветовое пространство : YUV
Субдискретизация насыщенности : 4:2:0
Битовая глубина : 8 бит
Тип развёртки : Прогрессивная
Бит/(Пиксели*Кадры) : 0.603
Основные цвета : BT.709
Характеристики трансфера : BT.709
Коэффициенты матрицы : BT.709

Аудио #1
Идентификатор : 4352 (0x1100)
Идентификатор меню : 1 (0x1)
Формат : DTS
Формат/Информация : Digital Theater Systems
Профиль формата : MA / Core
Режим : 16
Параметр Endianness формата : Big
Режим смешивания : Stream extension
Идентификатор кодека : 134
Продолжительность : 1 ч. 21 м.
Вид битрейта : Переменный
Битрейт : Неизвестно / 1509 Кбит/сек
Каналы : 6 каналов
Расположение каналов : Front: L C R, Side: L R, LFE
Частота : 48,0 КГц
Битовая глубина : 16 бит
Метод сжатия : Без потерь / Lossy

Аудио #2
Идентификатор : 4353 (0x1101)
Идентификатор меню : 1 (0x1)
Формат : AC-3
Формат/Информация : Audio Coding 3
Расширение режима : CM (complete main)
Параметр Endianness формата : Big
Идентификатор кодека : 129
Продолжительность : 1 ч. 21 м.
Вид битрейта : Постоянный
Битрейт : 448 Кбит/сек
Каналы : 6 каналов
Расположение каналов : Front: L C R, Side: L R, LFE
Частота : 48,0 КГц
Битовая глубина : 16 бит
Метод сжатия : С потерями
Размер потока : 262 Мбайт (1%)

Аудио #3
Идентификатор : 4354 (0x1102)
Идентификатор меню : 1 (0x1)
Формат : DTS
Формат/Информация : Digital Theater Systems
Профиль формата : MA / Core
Режим : 16
Параметр Endianness формата : Big
Режим смешивания : Stream extension
Идентификатор кодека : 134
Продолжительность : 1 ч. 21 м.
Вид битрейта : Переменный
Битрейт : Неизвестно / 1509 Кбит/сек
Каналы : 6 каналов
Расположение каналов : Front: L C R, Side: L R, LFE
Частота : 48,0 КГц
Битовая глубина : 16 бит
Метод сжатия : Без потерь / Lossy

Аудио #4
Идентификатор : 4355 (0x1103)
Идентификатор меню : 1 (0x1)
Формат : AC-3
Формат/Информация : Audio Coding 3
Расширение режима : CM (complete main)
Параметр Endianness формата : Big
Идентификатор кодека : 129
Продолжительность : 1 ч. 21 м.
Вид битрейта : Постоянный
Битрейт : 448 Кбит/сек
Каналы : 6 каналов
Расположение каналов : Front: L C R, Side: L R, LFE
Частота : 48,0 КГц
Битовая глубина : 16 бит
Метод сжатия : С потерями
Размер потока : 262 Мбайт (1%)

Текст
Идентификатор : 4608 (0x1200)
Идентификатор меню : 1 (0x1)
Формат : PGS
Идентификатор кодека : 144


Коллекционер 2 скачать торрент


pb.wtf



Скачать Коллекционер 2 через торрент http://i51.fastpic.ru/big/2013/0125/3e/9a08cebd58cdd6c076632d93d3857e3e.jpeg Скачать фильм Коллекционер 2 через торрент бесплантно в хорошем качестве Описание: Бывалому медвежатнику Аркину чудесным образом удалось выбраться из ловушек, расставленных по дому загадочным маньяком ... 10 10 3
Info! Золотая раздача, скачанное не засчитывается.
Торрент: Зарегистрирован [2013-01-25 18:54] · скачан: 130 раз
Статус: √ проверено
Размер: 22.08 GB
Как cкачать? Как скачать Коллекционер 2 через торрент | qTorrent

% Раздел Тема Автор DL S | L
Фильмы [HD 720p, 1080p] (Хороший звук DUB, MVO) [ 6.35 GB ] Коллекционер 2 / The Collection [2012 BDRip-HEVC 1080p ] [US-Transfer] DUB [] bober100 Скачать
1 | 0
Фильмы 2012 [ 1.36 GB ] Коллекционер 2 / The Collection [2012 DVDRip DUB лицензия] филиппок Скачать
1 | 0
Фильмы [HD 720p, 1080p] (Хороший звук DUB, MVO) [ 5.77 GB ] Коллекционер 2 / The Collection [2012 BDRip 720p лицензия] Ke$h@ Скачать
1 | 0
Фильмы [HD 720p, 1080p] (Хороший звук DUB, MVO) [ 11.31 GB ] Коллекционер 2 / The Collection [2012 BDRip 1080p DUB + Оригинал+Sub rus] Trava-HD Скачать
1 | 0
Фильмы 2012 [ 1.37 GB ] Коллекционер 2 / The Collection [2012 BDRip DUB / лицензия] Mr. Freeman Скачать
1 | 0
Фильмы [HD 720p, 1080p] (Хороший звук DUB, MVO) [ 4.5 GB ] Коллекционер 2 / The Collection [2012 BDRip 720p DUB лицензия] Sудья Скачать
1 | 0
Фильмы (DVD фильмы) [ 5.75 GB ] Коллекционер 2 / The Collection [2012 DVD9] R5 voovaz Скачать
1 | 0

28-11-2019 20:33  

Отключить всю рекламу на сайте

    Дорогой пользователь! Огромная просьба, поблагодарите релизера, оцените раздачу и оставьте свои комментарий, если Вы скачали Коллекционер 2 через торрент бесплатно! Внесите свою лепту в развитие PiratBit!
    Комментировать посты могут только пользователи прошедшие не сложную регистрацию
    Показать сообщения:    

    Коллекционер 2 через торрент
    Скачать бесплатно Коллекционер 2
    Коллекционер 2 скачать торрент
    Коллекционер 2 смотреть онлайн
    Cкачать фильм Коллекционер 2 бесплатно
    Коллекционер 2 скачать торрент в хорошем качестве
    Коллекционер 2 смотреть онлайн бесплатно в хорошем качестве


    Вы не можете начинать темы
    Вы не можете отвечать на сообщения
    Вы не можете редактировать свои сообщения
    Вы не можете удалять свои сообщения
    Вы не можете голосовать в опросах
    Вы не можете прикреплять файлы к сообщениям
    Вы можете скачивать файлы