Ссылка на приватное зеркало нашего сайта всего за 1$. Внимание количество ограничено!!!

2 сезон

iTunes

1 сезон

1

iTunes

iTunes

iTunes

1 сезон

RePack

30

ИГРА 18+

pack

ВАЖНО

!!Акция!!

Alien_RageХит недели

RePack

MK11
pack

Забери бонус

RePack

jed

!!Акция!!

Alien_Rage

RePack

fifa19

RePack

Assassins Creed: Odyssey

RePack

NEED FOR SPEED™ PAYBACK

4 сезон

9 сезон

Бесстыжие 9 сезон

Все сериалы

все сериалы на PB.wtf

RePack

FAR CRY 5
  

Там, где ты / Серии: 1-10 из 10 (Каринэ Фолиянц) [2014 г., Комедия, Мелодрама, SATRip] pb.wtf

Там, где ты через торрент pb.wtf

Размер: 5.3 GB | Добавлен: 6 лет 6 мес. назад | Торрент скачан:347 раз
Скачать  

21-03-2014 04:40 Там, где ты Скачать торрент  

Там, где ты Год выпуска: 2014
Страна: Россия, Украина First Breath Films, Kvartal 95 Studio, Leopolis
Жанр: Комедия, мелодрама
Продолжительность: 10 x ~ 00:45:00

Режиссер: Каринэ Фолиянц

Премьера в мире: 17 марта 2014



В ролях: Дмитрий Ульянов, Евгения Лоза, Анастасия Рысева, Елена Захарова, Валентин Терехов, Александр Сигуев, Анастасия Добрынина, Любовь Руденко, Раиса Рязанова, Эльдар Лебедев, Андрей Егоров, Станислав Эрдлей, Валерий Иваков

Описание: Игорь Рожнов мог бы назвать себя состоявшимся человеком. У него свой бизнес, шикарный особняк и красавица-невеста Кристина. Но успешная жизнь не радует Рожнова. В глубине души он уже давно не верит, что снова сможет стать таким же счастливым, как тринадцать лет назад. Все меняется, когда конкуренты Игоря решают разорить его. Сами того не подозревая, они делают ему самый большой подарок в жизни.

Качество: SATRip
Формат: AVI
Видео кодек: DivX
Аудио кодек: MP3
Видео: DivX 5, 720x400, 25.00fps, 1 601 Kbps
Аудио: MPEG Audio Layer 3, 48000Hz, stereo, 128kbps
Релиз от: Kn1GhT





General
Complete name : I:�1Tam.gde.tyTam.gde.ty.01.avi
Format : AVI
Format/Info : Audio Video Interleave
File size : 526 MiB
Duration : 42mn 5s
Overall bit rate : 1 746 Kbps

Video
ID : 0
Format : MPEG-4 Visual
Codec ID : DX50
Codec ID/Hint : DivX 5
Duration : 42mn 5s
Bit rate : 1 601 Kbps
Width : 720 pixels
Height : 400 pixels
Display aspect ratio : 16:9
Frame rate : 25.000 fps
Color space : YUV
Chroma subsampling : 4:2:0
Compression mode : Lossy
Bits/(Pixel*Frame) : 0.222
Stream size : 482 MiB (92%)

Audio
ID : 1
Format : MPEG Audio
Codec ID : 55
Codec ID/Hint : MP3
Duration : 42mn 5s
Bit rate : 128 Kbps
Channel(s) : 2 channels
Sampling rate : 48.0 KHz
Compression mode : Lossy
Stream size : 38.5 MiB (7%)
Alignment : Aligned on interleaves
Interleave, duration : 24 ms (0.60 video frame)

pb.wtf



Скачать Там, где ты через торрент http://pic.kartinco.top/images/6/ijf6i.jpg Скачать фильм Там, где ты через торрент бесплантно в хорошем качестве Описание: Игорь Рожнов мог бы назвать себя состоявшимся человеком. У него свой бизнес, шикарный особняк и красавица-невеста Кристина. Но ... 9.5 10 12
Info! Золотая раздача, скачанное не засчитывается.
Торрент: Зарегистрирован [2014-03-21 04:40] · скачан: 347 раз
Статус: √ проверено
Размер: 5.3 GB
Как cкачать? Как скачать Там, где ты через торрент | qTorrent

% Раздел Тема Автор DL S | L
Наши сериалы [ 12.19 GB ] Бессмертник. Начало / Часть 1 из 4 / Серии: 1-24 из 24 [2014 SATRip] Assasinca Скачать
1 | 0

28-11-2019 20:33  

Отключить всю рекламу на сайте

21-03-2014 05:38 Там, где ты Скачать торрент  

Фильм совсем неплохой, лично мне понравился, хоть и обычная мелодрамаpb.wtf



    Дорогой пользователь! Огромная просьба, поблагодарите релизера, оцените раздачу и оставьте свои комментарий, если Вы скачали Там, где ты через торрент бесплатно! Внесите свою лепту в развитие PiratBit!
    Комментировать посты могут только пользователи прошедшие не сложную регистрацию
    Показать сообщения:    

    Там, где ты через торрент
    Скачать бесплатно Там, где ты
    Там, где ты скачать торрент
    Там, где ты смотреть онлайн
    Cкачать фильм Там, где ты бесплатно
    Там, где ты скачать торрент в хорошем качестве
    Там, где ты смотреть онлайн бесплатно в хорошем качестве


    Вы не можете начинать темы
    Вы не можете отвечать на сообщения
    Вы не можете редактировать свои сообщения
    Вы не можете удалять свои сообщения
    Вы не можете голосовать в опросах
    Вы не можете прикреплять файлы к сообщениям
    Вы можете скачивать файлы