Ссылка на приватное зеркало нашего сайта всего за 1$. Внимание количество ограничено!!!

2 сезон

iTunes

1 сезон

1

iTunes

iTunes

iTunes

1 сезон

RePack

30

ИГРА 18+

pack

ВАЖНО

!!Акция!!

Alien_RageХит недели

RePack

MK11
pack

Забери бонус

RePack

jed

!!Акция!!

Alien_Rage

RePack

fifa19

RePack

Assassins Creed: Odyssey

RePack

NEED FOR SPEED™ PAYBACK

4 сезон

9 сезон

Бесстыжие 9 сезон

Все сериалы

все сериалы на PB.wtf

RePack

FAR CRY 5
  

Ранго / Rango (Гор Вербински) [2011, мультфильм, комедия, приключения, семейный, вестерн, HDRip-AVC] DUB [Лицензия] от R.G. PiratFilms pb.wtf

Ранго через торрент pb.wtf

Размер: 2.18 GB | Добавлен: 6 лет 7 мес. назад | Торрент скачан:251 раз
Скачать  

21-03-2014 08:13 Ранго Скачать торрент  

Ранго / Rango


Год выпуска: 2011
Страна: США
Жанр: мультфильм, комедия, приключения, семейный, вестерн
Длительность: 01:51:50
Перевод: Профессиональный (Дубляж) [Лицензия]

Режиссер: Гор Вербински

В ролях: Джонни Депп, Айла Фишер, Эбигейл Бреслин, Нед Битти, Альфред Молина, Билл Найи, Стивен Рут, Гарри Дин Стэнтон, Тимоти Олифант, Рэй Уинстон

Описание: Ранго — хамелеон, который живет в террариуме и считает себя героем, которому, к сожалению, никак не удается проявить свое бесстрашие. Но когда он внезапно оказывается в городке Грязь, у него появляется такая возможность. Ранго провозглашает себя борцом за справедливость и начинает вести себя как шериф на Диком Западе. Он еще не знает, что быть «хорошим парнем» в этих краях не самая завидная участь…

|

Качество: HDRip-AVC (Rip by Demonessa)
Исходник: BDRip 1080p
Формат: MKV
Видео кодек: H.264
Аудио кодек: AC3
Видео: H.264, 960*400, 23,976 кадр/сек, 2402 Кбит/сек, 0.261 Бит/(Пиксели*Кадры)
Аудио: AC3, 384 Кбит/сек, 6 каналов, 48,0 КГц

Код:

x264 [info]: frame I:1409  Avg QP:16.79  size: 76902  PSNR Mean Y:46.00 U:48.48 V:49.70 Avg:46.75 Global:46.26
x264 [info]: frame P:43254 Avg QP:19.66  size: 21368  PSNR Mean Y:43.36 U:47.34 V:48.89 Avg:44.34 Global:43.75
x264 [info]: frame B:116217 Avg QP:21.44  size:  8444  PSNR Mean Y:42.64 U:46.66 V:48.12 Avg:43.67 Global:42.99
x264 [info]: consecutive B-frames:  4.8%  5.7% 12.6% 31.8% 15.0% 26.4%  2.5%  0.6%  0.4%

Код:

Общее
Уникальный идентификатор         : 232278096147535796126681878313174708447 (0xAEBF22530A11B7B2896AE72BD88A30DF)
Полное имя                       : G:VideoRip by DemonessaRango Rip by Demonessa.mkv
Формат                           : Matroska
Размер файла                     : 2,18 Гбайт
Продолжительность                : 1 ч. 51 м.
Общий поток                      : 2787 Кбит/сек
Дата кодирования                 : UTC 2014-03-21 08:22:52
Программа кодирования            : mkvmerge v6.5.0 ('Isn't she lovely') built on Oct 20 2013 12:50:05
Библиотека кодирования           : libebml v1.3.0 + libmatroska v1.4.1

Видео
Идентификатор                    : 1
Формат                           : AVC
Формат/Информация                : Advanced Video Codec
Профиль формата                  : High@L4.1
Параметр CABAC формата           : Да
Параметр ReFrames формата        : 12 кадры
Идентификатор кодека             : V_MPEG4/ISO/AVC
Продолжительность                : 1 ч. 51 м.
Битрейт                          : 2402 Кбит/сек
Ширина                           : 960 пикс.
Высота                           : 400 пикс.
Соотношение сторон               : 2,40:1
Частота кадров                   : 23,976 кадр/сек
Цветовое пространство            : YUV
Подвыборка цветности             : 4:2:0
Битовая глубина                  : 8 бит
Тип развёртки                    : Прогрессивная
Бит/(Пиксели*Кадры)              : 0.261
Размер потока                    : 1,83 Гбайт (84%)
Заголовок                        : Rip by Demonessa
Библиотека кодирования           : x264 core 138 r2358 9e941d1
Настройки программы              : cabac=1 / ref=12 / deblock=1:-3:-3 / analyse=0x3:0x113 / me=umh / subme=9 / psy=1 / psy_rd=1.00:0.00 / mixed_ref=1 / me_range=32 / chroma_me=1 / trellis=2 / 8x8dct=1 / cqm=0 / deadzone=21,11 / fast_pskip=1 / chroma_qp_offset=-2 / threads=4 / lookahead_threads=1 / sliced_threads=0 / nr=0 / decimate=1 / interlaced=0 / bluray_compat=0 / constrained_intra=0 / bframes=8 / b_pyramid=2 / b_adapt=2 / b_bias=0 / direct=1 / weightb=1 / open_gop=0 / weightp=2 / keyint=240 / keyint_min=23 / scenecut=40 / intra_refresh=0 / rc_lookahead=40 / rc=2pass / mbtree=1 / bitrate=2402 / ratetol=1.0 / qcomp=0.75 / qpmin=10 / qpmax=51 / qpstep=4 / cplxblur=20.0 / qblur=0.5 / ip_ratio=1.40 / aq=1:1.00
Язык                             : English

Аудио
Идентификатор                    : 2
Формат                           : AC-3
Формат/Информация                : Audio Coding 3
Расширение режима                : CM (complete main)
Идентификатор кодека             : A_AC3
Продолжительность                : 1 ч. 51 м.
Вид битрейта                     : Постоянный
Битрейт                          : 384 Кбит/сек
Канал(ы)                         : 6 канала(ов)
Расположение каналов             : Front: L C R, Side: L R, LFE
Частота                          : 48,0 КГц
Битовая глубина                  : 16 бит
Метод сжатия                     : С потерями
Размер потока                    : 307 Мбайт (14%)
Заголовок                        : Дубляж
Язык                             : Russian

pb.wtf



Скачать Ранго через торрент http://pic.kartinco.top/images/6/9ilou.jpg Скачать фильм Ранго через торрент бесплантно в хорошем качестве Описание: Ранго — хамелеон, который живет в террариуме и считает себя героем, которому, к сожалению, никак не удается проявить свое ... 10 10 19
Info! Золотая раздача, скачанное не засчитывается.
Торрент: Зарегистрирован [2014-03-21 08:13] · скачан: 251 раз
Статус: √ проверено
Размер: 2.18 GB
Как cкачать? Как скачать Ранго через торрент | qTorrent



Последний раз редактировалось: Demonessa (2014-04-07 17:35), всего редактировалось 1 раз

28-11-2019 20:33  

Отключить всю рекламу на сайте

21-03-2014 08:36 Ранго Скачать торрент  

Спасибо за оскароносный мульт! pb.wtf



    Дорогой пользователь! Огромная просьба, поблагодарите релизера, оцените раздачу и оставьте свои комментарий, если Вы скачали Ранго через торрент бесплатно! Внесите свою лепту в развитие PiratBit!
    Комментировать посты могут только пользователи прошедшие не сложную регистрацию
    Показать сообщения:    

    Ранго через торрент
    Скачать бесплатно Ранго
    Ранго скачать торрент
    Ранго смотреть онлайн
    Cкачать фильм Ранго бесплатно
    Ранго скачать торрент в хорошем качестве
    Ранго смотреть онлайн бесплатно в хорошем качестве


    Вы не можете начинать темы
    Вы не можете отвечать на сообщения
    Вы не можете редактировать свои сообщения
    Вы не можете удалять свои сообщения
    Вы не можете голосовать в опросах
    Вы не можете прикреплять файлы к сообщениям
    Вы можете скачивать файлы