1 сезон

3 сезон

iTunes

1

iTunes

MVO

iTunes

13

1 сезон

RePack

30

Deluxe

pack

Лицензия

ВАЖНО

ИГРА 18+

pack

RePack

MK11

RePack

jed

RePack

fifa19

RePack

RDR2

RePack

NEED FOR SPEED™ PAYBACK

4 сезон

9 сезон

Бесстыжие 9 сезон

Все сериалы

все сериалы на PB.wtf

RePack

FAR CRY 5

Anonymous, доброе утро, мы катастрофически не успеваем собрать деньги на оплату серверов, помогите нам пожалуйста 5,10,15р., для нас важна любая помощь . В качестве благодарности мы отключим Вам всю рекламу на сайте (укажите свой ник в строку Ваше имя)!

×
  
Magnet ссылка

Внутри Льюина Дэвиса / Inside Llewyn Davis (Итан Коэн, Джоэл Коэн / Ethan Coen, Joel Coen) [2013, драма, музыка, DVD5] R5 pb.wtf

Внутри Льюина Дэвиса через торрент pb.wtf

Размер: 4.15 GB | Добавлен: 7 лет 4 мес. назад | Торрент скачан:35 раз
Скачать  

22-03-2014 19:23 Внутри Льюина Дэвиса Скачать торрент  


Внутри Льюина Дэвиса / Inside Llewyn Davis
Страна: США, Великобритания, Франция
Студия: Anton Capital Entertainment (ACE), CBS Films, Mike Zoss Productions, Scott Rudin Productions, Studio Canal
Жанр: драма, музыка
Год выпуска: 2013
Мировая премьера: 5 декабря 2012
Российская премьера: 23 января 2014
Украинская премьера: 23 января 2014
Дата выхода DVD: 25 марта 2014
Продолжительность: 01:40:24
Перевод: Профессиональный (дублированный) [Лицензия]
Cубтитры: нет
Оригинальная аудиодорожка: нет
Режиссер: Итан Коэн, Джоэл Коэн / Ethan Coen, Joel Coen
В ролях: Оскар Айзек, Кэри Маллиган, Итэн Филлипс, Робин Бартлетт, Джон Гудман, Джастин Тимберлэйк, Макс Казелла, Гаррет Хедлунд, Джерри Грэйсон, Ф. Мюррэй Абрахам...
Описание: Богемные кварталы Манхэттена и клубы табачного дыма, пыльные дороги Америки и гигантские тиражи винила… Нью-Йорк. Конец 50-х.
Льюин Дэвис, талантливый певец и гитарист из Квинса, с трудом перебивается между выступлениями в клубах Гринвич-Виллиджа, редкими записями на радио. Без дома и денег, запутавшись в любви, почти потеряв связь с семьей, он странствует по жизни в поисках себя. И не находит. Все, что у него есть — это музыка. Удастся ли разгадать тайны его музыки? Что там, внутри Льюина Дэвиса?

Бонусы: Скоро на DVD

Релиз группы:
Качество: DVD5 R5
Формат: DVD-Video
Видео кодек: MPEG2
Аудио кодек: AC3
Видео: PAL 16:9 (720x576(0.505)) MPEG Video, 25,000 кадр/сек, 5239 Кбит/сек
Аудио: Russian (Dolby AC3, 6 ch) 384 Кбит/сек, 48,0 КГц



Title: Vnutri.Lyuina.Devisa.2013.DVD5
Size: 4.15 Gb ( 4 356 268,00 KBytes ) - DVD-5
Enabled regions: 1, 2, 3, 4, 5, 6, 7, 8

VTS_01 :
Play Length: 01:40:24
Video: PAL 16:9 (720x576) VBR, Auto Letterboxed
Audio:
Russian (Dolby AC3, 6 ch)

VTS_02 :
Play Length: 00:08:53
Video: PAL 16:9 (720x576) VBR, Auto Letterboxed
Audio:
Not specified (Dolby AC3, 2 ch)

* Menus Information *

VIDEO_TS Menu
Video:
PAL 16:9 (720x576) VBR
Auto Pan&Scan
Audio:
Not specified (Dolby AC3, 2 ch)
Russian Language Unit :
Title Menu

VTS_01 Menu
Video:
PAL 16:9 (720x576) VBR
Auto Pan&Scan
Audio:
Not specified (Dolby AC3, 6 ch)
Russian Language Unit :
Root Menu
Chapter (PTT) Menu

VTS_02 Menu
Video:
NTSC 4:3 (720x480) VBR
Auto Pan&Scan, Auto Letterboxed
Russian Language Unit :
Root Menu
Общее
Полное имя : D:Новинки 2014Vnutri.Lyuina.Devisa.2013.DVD5VIDEO_TSVTS_01_2.VOB
Формат : MPEG-PS
Размер файла : 1024 Мбайт
Продолжительность : 24 м.
Режим общего битрейта : Переменный
Общий поток : 5738 Кбит/сек

Видео
Идентификатор : 224 (0xE0)
Формат : MPEG Video
Версия формата : Version 2
Профиль формата : Main@Main
Параметр BVOP формата : Да
Параметр матрицы формата : Выборочная
Параметр GOP формата : Variable
Продолжительность : 24 м.
Вид битрейта : Переменный
Битрейт : 5239 Кбит/сек
Максимальный битрейт : 9000 Кбит/сек
Ширина : 720 пикселей
Высота : 576 пикселей
Соотношение сторон : 16:9
Частота кадров : 25,000 кадров/сек
Стандарт вещания : PAL
Цветовое пространство : YUV
Субдискретизация насыщенности : 4:2:0
Битовая глубина : 8 бит
Тип развёртки : Прогрессивная
Порядок развёртки : Верхнее поле первое
Метод сжатия : С потерями
Бит/(Пиксели*Кадры) : 0.505
Временной код первого кадра : 01:25:42:06
Оригинал временного кода : Group of pictures header
Размер потока : 935 Мбайт (91%)

Аудио
Идентификатор : 189 (0xBD)-128 (0x80)
Формат : AC-3
Формат/Информация : Audio Coding 3
Расширение режима : CM (complete main)
Параметр Endianness формата : Big
Режим смешивания : DVD-Video
Продолжительность : 24 м.
Вид битрейта : Постоянный
Битрейт : 384 Кбит/сек
Каналы : 6 каналов
Расположение каналов : Front: L C R, Side: L R, LFE
Частота : 48,0 КГц
Битовая глубина : 16 бит
Метод сжатия : С потерями
Задержка видео : -552 мс.
Размер потока : 68,5 Мбайт (7%)










pb.wtf



Скачать Внутри Льюина Дэвиса через торрент http://i57.fastpic.ru/big/2014/0322/f6/32487d011f8846211c4decce81decaf6.jpg Скачать фильм Внутри Льюина Дэвиса через торрент бесплантно в хорошем качестве Описание: Богемные кварталы Манхэттена и клубы табачного дыма, пыльные дороги Америки и гигантские тиражи винила… Нью-Йорк. Конец ... 6.3 10 3
Info! Серебряная раздача, засчитывается только 50% скачанного.
Торрент: Зарегистрирован [2014-03-22 19:23] · скачан: 35 раз
Статус: √ проверено
Размер: 4.15 GB
Как cкачать? Как скачать Внутри Льюина Дэвиса через торрент | UTorrent

% Раздел Тема Автор DL S | L
Фильмы [HD 720p, 1080p] (Хороший звук DUB, MVO) [ 7.93 GB ] Внутри Льюина Дэвиса / Inside Llewyn Davis [2012 музыка BDRip 1080p от R.G. HD-Films Ворон Скачать
1 | 0

28-11-2019 20:33  

Отключить всю рекламу на сайте

    Дорогой пользователь! Огромная просьба, поблагодарите релизера, оцените раздачу и оставьте свои комментарий, если Вы скачали Внутри Льюина Дэвиса через торрент бесплатно! Внесите свою лепту в развитие PiratBit!
    Комментировать посты могут только пользователи прошедшие не сложную регистрацию
    Показать сообщения:    

    Внутри Льюина Дэвиса через торрент
    Скачать бесплатно Внутри Льюина Дэвиса
    Внутри Льюина Дэвиса скачать торрент
    Внутри Льюина Дэвиса смотреть онлайн
    Cкачать фильм Внутри Льюина Дэвиса бесплатно
    Внутри Льюина Дэвиса скачать торрент в хорошем качестве
    Внутри Льюина Дэвиса смотреть онлайн бесплатно в хорошем качестве


    Вы не можете начинать темы
    Вы не можете отвечать на сообщения
    Вы не можете редактировать свои сообщения
    Вы не можете удалять свои сообщения
    Вы не можете голосовать в опросах
    Вы не можете прикреплять файлы к сообщениям
    Вы можете скачивать файлы