2 сезон

iTunes

MVO

1

2 сезон

iTunes

iTunes

1 сезон

RePack

30

Новинка

ВАЖНО

ИГРА 18+

pack

RePack

MK11
pack

Легкие деньги

RePack

jed

RePack

fifa19

RePack

RDR2

RePack

NEED FOR SPEED™ PAYBACK

4 сезон

9 сезон

Бесстыжие 9 сезон

Все сериалы

все сериалы на PB.wtf

RePack

FAR CRY 5

Anonymous, добрый вечер, мы не успеваем собрать деньги на оплату серверов за декабрь и январь, помогите нам пожалуйста в это трудное время. В качестве благодарности мы отключим Вам всю рекламу на сайте (укажите свой ник в строку Ваше имя)!

×
  
Magnet ссылка

Прощай, Париж / Adieu Paris (Франциска Бух) [2013 г., Драма, HDRip, Профессиональный двухголосый] [НТВ+] pb.wtf

Прощай, Париж через торрент pb.wtf

Размер: 1.37 GB | Добавлен: 6 лет 9 мес. назад | Торрент скачан:53 раза
Скачать  

22-03-2014 21:03 Прощай, Париж Скачать торрент  

Прощай Париж / Adieu Paris

Год выпуска: 2013
Страна: Германия, Люксембург, Франция
Выпущено: Bayerischer Rundfunk (BR), Iris Productions, Drimage, Norddeutscher Rundfunk (NDR)
Жанр: Драма
Продолжительность: 01:36:43
Перевод: Профессиональный двухголосый [НТВ+]

Режиссер: Франциска Бух
Продюссер: Штефан Шуберт, Ральф Швингель, Кристин Деррер
Сценарий: Мартин Раухаус
Премьера в мире: 11 июля 2013

IMDB 5.60 (26)


В ролях: Джессика Шварц, Сандрин Боннэр, Ганс Вернер Мейер, Жерар Жюньо, Жан-Ив Бертело, Ина Вайсе, Туре Линдхардт, Массимо Бранкателли, Клод Бреда, Якоб Седертун, Линда Фёрстер, Ханнес Хелльманн, Андре Юнг, Тобиас Казимирович, Йюрг Лёв, Сильвия Мален, Мария Матчке, Николь Макс, Жан-Мишель Неппер, Клодин Пеллетье, Хайка Тринкер, Тим Роут

Описание: Аэропорт — место, где пересекаются судьбы. Банкир Фрэнк и продюсер Патрисиа слишком часто встречаются в парижском аэропорту, чтобы это можно было посчитать простой случайностью. Его карьера под угрозой — банковские махинации затронули его лично, она пытается смириться с трагедией — любовник находится в коме после тяжелой аварии и вряд ли вернется к нормальной жизни. Между тем, у каждого из них свои «странные утешения». Для Патрисии это жена любовника, с которой они разделяют горе, а для Фрэнка, как ни удивительно, знакомый мясник.

Качество: HDRip
Формат: AVI
Видео кодек: XviD
Аудио кодек: AC3
Видео: XviD, 1540 Кбит/с, 720x400, 25.000 fps, (Bits/Pixel): 0.333
Аудио: AC3, 6 ch, 384 Кбит/с, 48.0 KHz
General
Complete name : /home/sb753/files/Proshaj.Parizh.2013.P.HDRip.avi
Format : AVI
Format/Info : Audio Video Interleave
File size : 1.37 GiB
Duration : 1h 36mn
Overall bit rate : 2 024 Kbps
Writing application : VirtualDubMod 1.5.10.2 (build 2540/release)
Writing library : VirtualDubMod build 2540/release

Video
ID : 0
Format : MPEG-4 Visual
Format profile : Advanced Simple@L5
Format settings, BVOP : 2
Format settings, QPel : No
Format settings, GMC : No warppoints
Format settings, Matrix : Default (MPEG)
Codec ID : XVID
Codec ID/Hint : XviD
Duration : 1h 36mn
Bit rate : 1 822 Kbps
Width : 720 pixels
Height : 304 pixels
Display aspect ratio : 2.35:1
Frame rate : 25.000 fps
Color space : YUV
Chroma subsampling : 4:2:0
Bit depth : 8 bits
Scan type : Progressive
Compression mode : Lossy
Bits/(Pixel*Frame) : 0.333
Stream size : 1.23 GiB (90%)
Writing library : XviD 1.2.1 (UTC 2008-12-04)

Audio
ID : 1
Format : AC-3
Format/Info : Audio Coding 3
Mode extension : CM (complete main)
Format settings, Endianness : Big
Codec ID : 2000
Duration : 1h 36mn
Bit rate mode : Constant
Bit rate : 192 Kbps
Channel(s) : 2 channels
Channel positions : Front: L R
Sampling rate : 48.0 KHz
Bit depth : 16 bits
Compression mode : Lossy
Stream size : 133 MiB (9%)
Alignment : Split accross interleaves
Interleave, duration : 40 ms (1.00 video frame)
Interleave, preload duration : 500 ms
pb.wtf



Скачать Прощай, Париж через торрент http://i4.imageban.ru/out/2014/03/23/55194c7974024a93cd803b82f9c6e324.png Скачать фильм Прощай, Париж через торрент бесплантно в хорошем качестве Описание: Аэропорт — место, где пересекаются судьбы. Банкир Фрэнк и продюсер Патрисиа слишком часто встречаются в парижском аэропорту, ... 9.8 10 4
Торрент: Зарегистрирован [2014-03-22 21:03] · скачан: 53 раз
Статус: √ проверено
Размер: 1.37 GB
Как cкачать? Как скачать Прощай, Париж через торрент | UTorrent

% Раздел Тема Автор DL S | L
Фильмы 2013 [DVDrip, WEB-DLRip, HDrip] [ 2.14 GB ] Прощай Париж / Adieu Paris [2013 HDRip многоголосый ] coc900 Скачать
1 | 0

28-11-2019 20:33  

Отключить всю рекламу на сайте

    Дорогой пользователь! Огромная просьба, поблагодарите релизера, оцените раздачу и оставьте свои комментарий, если Вы скачали Прощай, Париж через торрент бесплатно! Внесите свою лепту в развитие PiratBit!
    Комментировать посты могут только пользователи прошедшие не сложную регистрацию
    Показать сообщения:    

    Прощай, Париж через торрент
    Скачать бесплатно Прощай, Париж
    Прощай, Париж скачать торрент
    Прощай, Париж смотреть онлайн
    Cкачать фильм Прощай, Париж бесплатно
    Прощай, Париж скачать торрент в хорошем качестве
    Прощай, Париж смотреть онлайн бесплатно в хорошем качестве


    Вы не можете начинать темы
    Вы не можете отвечать на сообщения
    Вы не можете редактировать свои сообщения
    Вы не можете удалять свои сообщения
    Вы не можете голосовать в опросах
    Вы не можете прикреплять файлы к сообщениям
    Вы можете скачивать файлы