Ссылка на приватное зеркало нашего сайта всего за 1$. Внимание количество ограничено!!!

2 сезон

iTunes

1 сезон

1

iTunes

iTunes

iTunes

1 сезон

RePack

30

ИГРА 18+

pack

ВАЖНО

!!Акция!!

Alien_RageХит недели

RePack

MK11
pack

Забери бонус

RePack

jed

!!Акция!!

Alien_Rage

RePack

fifa19

RePack

Assassins Creed: Odyssey

RePack

NEED FOR SPEED™ PAYBACK

4 сезон

9 сезон

Бесстыжие 9 сезон

Все сериалы

все сериалы на PB.wtf

RePack

FAR CRY 5
  

Короткий срок 12 / Short Term 12 (Дестин Креттон / Destin Cretton) [2013, США, драма , BDRip-AVC,Любительский (одноголосый) pb.wtf

Короткий срок 12 через торрент pb.wtf

Размер: 2.43 GB | Добавлен: 6 лет 6 мес. назад | Торрент скачан:19 раз
Скачать  

23-03-2014 06:14 Короткий срок 12 Скачать торрент  

Короткий срок 12 / Short Term 12
Год выпуска: 2013
Страна: США
Жанр: драма
Продолжительность: 01:36:49
Перевод: Любительский (одноголосый) А. Матвеев aka Doktor_Joker
Субтитры: Русские, английские
Режиссер: Дестин Креттон / Destin Cretton
В ролях: Бри Ларсон (Grace), Джон Галлахер мл. (Mason), Стефани Беатриз (Jessica), Рами Малек (Nate), Алекс Кэллоуэй (Sammy), Кевин Эрнандес (Luis), Лидия Дю Во (Kendra), Лейкит Стэнфилд (Marcus), Франц Тернер (Jack), Кейтлин Девер (Jayden), Диана-Мария Рива (Nurse Beth), Харольд Кэннон (Mason's Dad)
Описание:
Фильм рассказывает историю девушки по имени Грэйс, которая работает в лагере для трудных подростков N12. Всё было спокойно, пока в лагерь не поступила девочка по имени Джейден, которая своим бунтарским поведением завоевала пристальное внимание Грэйс и вскрыла некоторые старые раны...
kinopoisk.ru: 7.731 (646)
imdb.com: 8.10 (13 756)
MPAA: R - Лицам до 17 лет обязательно присутствие взрослого
Качество: BDRip-AVC
Формат: MKV
Видео кодек: AVC
Аудио кодек: AC3
Видео: AVC, 1280x690 (1.855), 3067 kbps, 23,976 fps, 0,145 bpp
Аудио: AC3 / 5.1 / 48 kHz / 448 kbps / 16 bit ||

Общее
Уникальный идентификатор : 17225537985194945511419729067300145036 (0xCF58497CE85004DD80CB009BD90C78C)
Полное имя : E:закачкиShort Term 12.2013.720p.BluRay.x264-LEONARDO.mkv
Формат : Matroska
Версия формата : Version 2
Размер файла : 2,43 Гбайт
Продолжительность : 1 ч. 36 м.
Общий поток : 3587 Кбит/сек
Название фильма : -=LEONARDO=-
Дата кодирования : UTC 2014-02-12 13:03:04
Программа кодирования : mkvmerge v5.0.1 ('Es ist Sommer') built on Oct 23 2011 00:46:40
Библиотека кодирования : libebml v1.2.2 + libmatroska v1.3.0

Видео
Идентификатор : 1
Формат : AVC
Формат/Информация : Advanced Video Codec
Профиль формата : High@L4.1
Параметр CABAC формата : Да
Параметр ReFrames формата : 8 кадров
Идентификатор кодека : V_MPEG4/ISO/AVC
Продолжительность : 1 ч. 36 м.
Битрейт : 3067 Кбит/сек
Ширина : 1280 пикселей
Высота : 690 пикселей
Соотношение сторон : 1,85:1
Режим частоты кадров : Постоянный
Частота кадров : 23,976 кадра/сек
Цветовое пространство : YUV
Субдискретизация насыщенности : 4:2:0
Битовая глубина : 8 бит
Тип развёртки : Прогрессивная
Бит/(Пиксели*Кадры) : 0.145
Размер потока : 2,07 Гбайт (86%)
Библиотека кодирования : x264 core 125 r2208 d9d2288
Настройки программы : cabac=1 / ref=8 / deblock=1:-3:-3 / analyse=0x3:0x133 / me=umh / subme=11 / psy=1 / psy_rd=1.00:0.20 / mixed_ref=1 / me_range=32 / chroma_me=1 / trellis=2 / 8x8dct=1 / cqm=0 / deadzone=21,11 / fast_pskip=0 / chroma_qp_offset=-3 / threads=12 / lookahead_threads=2 / sliced_threads=0 / nr=0 / decimate=1 / interlaced=0 / bluray_compat=0 / constrained_intra=0 / bframes=8 / b_pyramid=2 / b_adapt=2 / b_bias=0 / direct=1 / weightb=1 / open_gop=0 / weightp=2 / keyint=250 / keyint_min=23 / scenecut=40 / intra_refresh=0 / rc=crf / mbtree=0 / crf=17.5 / qcomp=0.60 / qpmin=0 / qpmax=69 / qpstep=4 / ip_ratio=1.40 / pb_ratio=1.30 / aq=2:1.00
Язык : English
Default : Да
Forced : Нет

Аудио
Идентификатор : 2
Формат : AC-3
Формат/Информация : Audio Coding 3
Расширение режима : CM (complete main)
Параметр Endianness формата : Big
Идентификатор кодека : A_AC3
Продолжительность : 1 ч. 36 м.
Вид битрейта : Постоянный
Битрейт : 448 Кбит/сек
Каналы : 6 каналов
Расположение каналов : Front: L C R, Side: L R, LFE
Частота : 48,0 КГц
Битовая глубина : 16 бит
Метод сжатия : С потерями
Размер потока : 310 Мбайт (12%)
Язык : Russian
Default : Да
Forced : Да

Текст #1
Идентификатор : 3
Формат : UTF-8
Идентификатор кодека : S_TEXT/UTF8
Идентификатор кодека/Информация : UTF-8 Plain Text
Заголовок : Forsed
Язык : Russian
Default : Нет
Forced : Нет

Текст #2
Идентификатор : 4
Формат : UTF-8
Идентификатор кодека : S_TEXT/UTF8
Идентификатор кодека/Информация : UTF-8 Plain Text
Заголовок : Doctor Joker
Язык : Russian
Default : Нет
Forced : Нет

Текст #3
Идентификатор : 5
Формат : UTF-8
Идентификатор кодека : S_TEXT/UTF8
Идентификатор кодека/Информация : UTF-8 Plain Text
Язык : English
Default : Да
Forced : Нет

Меню
00:00:00.000 : en:Chapter 1
00:06:12.246 : en:Chapter 2
00:14:06.971 : en:Chapter 3
00:22:00.861 : en:Chapter 4
00:31:55.496 : en:Chapter 5
00:40:02.190 : en:Chapter 6
00:49:30.634 : en:Chapter 7
00:59:36.572 : en:Chapter 8
01:08:05.289 : en:Chapter 9
01:17:39.363 : en:Chapter 10
01:25:47.183 : en:Chapter 11
01:33:02.994 : en:Chapter 12
Чтобы убедить режиссера Дестина Креттона взять ее на роль, Бри Ларсон рассказала ему, что она примкнула к волонтерам, работающим с неблагополучными детьми, после прочтения сценария, чтобы исследовать роль. Креттон был впечатлен и взял ее на эту роль. И только спустя некоторое время стало известно, что Ларсон отказала каждая организация, в которую она обращалась.
Автор рипа:
pb.wtf



Скачать Короткий срок 12 через торрент http://5.firepic.org/5/images/2014-03/23/tlptgdn9wnux.jpg Скачать фильм Короткий срок 12 через торрент бесплантно в хорошем качестве Описание: Фильм рассказывает историю девушки по имени Грэйс, которая работает в лагере для трудных подростков N1 Всё было спокойно, пока ... 10 10 4
Info! Серебряная раздача, засчитывается только 50% скачанного.
Торрент: Зарегистрирован [2014-03-23 06:14] · скачан: 19 раз
Статус: √ проверено
Размер: 2.43 GB
Как cкачать? Как скачать Короткий срок 12 через торрент | qTorrent

% Раздел Тема Автор DL S | L
Фильмы [HD 720p, 1080p] (Хороший звук DUB, MVO) [ 14.32 GB ] Короткий срок 12 / Short Term 12 [2013 BDRip 1080p ] MVO Ворон Скачать
1 | 0
Фильмы с авторской озвучкой [ 1.44 GB ] Короткий срок 12 / Short Term 12 [2013 HDRip Авторский одноголосый ] coc900 Скачать
1 | 0


Последний раз редактировалось: KEYS (2014-03-23 07:03), всего редактировалось 1 раз

28-11-2019 20:33  

Отключить всю рекламу на сайте

    Дорогой пользователь! Огромная просьба, поблагодарите релизера, оцените раздачу и оставьте свои комментарий, если Вы скачали Короткий срок 12 через торрент бесплатно! Внесите свою лепту в развитие PiratBit!
    Комментировать посты могут только пользователи прошедшие не сложную регистрацию
    Показать сообщения:    

    Короткий срок 12 через торрент
    Скачать бесплатно Короткий срок 12
    Короткий срок 12 скачать торрент
    Короткий срок 12 смотреть онлайн
    Cкачать фильм Короткий срок 12 бесплатно
    Короткий срок 12 скачать торрент в хорошем качестве
    Короткий срок 12 смотреть онлайн бесплатно в хорошем качестве


    Вы не можете начинать темы
    Вы не можете отвечать на сообщения
    Вы не можете редактировать свои сообщения
    Вы не можете удалять свои сообщения
    Вы не можете голосовать в опросах
    Вы не можете прикреплять файлы к сообщениям
    Вы можете скачивать файлы