MEGA SALE -50% FORZA HORIZON 4 ULTIMATE+ВСЕ DLC+ОНЛАЙН всего за 599р. 299 руб. (супер цена). Внимание количество ограничено!!!

iTunes

1+1

iTunes

мы

iTunes

1

iTunes

Чернобыль

iTunes

Ральф против интернета

Лицензия

ПШазам

Лицензия

Игра престолов

Лицензия

30
pack

ВАЖНО

!!Акция!!

Alien_RageХит недели

RePack

Resident Evil 21

ИГРА 18+

pack

RePack

Metro:Exodus

!!Акция!!

Alien_Rage

RePack

fifa19

RePack

Assassins Creed: Odyssey

RePack

NEED FOR SPEED™ PAYBACK

3 сезон

9 сезон

Бесстыжие 9 сезон

Все сериалы

все сериалы на PB.wtf

RePack

FAR CRY 5
Ребята, катастрофически не хватает 7730р. для оплаты серверов за АВГУСТ (всвязи с блокировками трафик упал в 3 раза), 1-2р., выручайте.
  

Триумфатор / Кориолан / Coriolano: eroe senza patria / Coriolanus - Hero Without a Country (Джорджио Феррони / Giorgio Ferroni) [1964, Италия, Франция, боевик, драма, приключения, история, DVDRip-AVC] MVO + Ger pb.wtf

Триумфатор через торрент pb.wtf

Раздают: 1 [ 0 KB/s ]
Размер: 1.61 GB | Добавлен: 5 лет 5 мес. назад | Торрент скачан:18 раз
Скачать  

23-03-2014 09:06 Триумфатор Скачать торрент  

Триумфатор
Coriolano: eroe senza patria




Страна: Италия, Франция
Студия: Comptoir Français du Film Production (CFFP), Doria Film, Explorer Film '58
Жанр: боевик, драма, приключения, история
Год выпуска: 1964
Продолжительность: 01:32:46

Перевод: Профессиональный (многоголосый, закадровый) [«Арена»]
Cубтитры: Нет
Оригинальная аудиодорожка: Немецкий (отдельно)

Режиссер:
Джорджио Феррони / Giorgio Ferroni

В ролях:
Гордон Скотт, Альберто Лупо, Лилла Бриньоне, Филипп Эрсен, Розальба Нери, Альдо Буфи Ланди, Анджела Минервини, Пьер Крессуа, Gaetano Quartararo, Нерио Бернарди

Описание:
В трудные для Рима времена доблестный воин Кай Март спасает город от нашествия врагов. Слава Кая Марта не дает покоя его противникам в Римском сенате, им удается изгнать Кая. однако, когда Риму угрожает новая опасность, только Кай Март сможет вновь спастисвой город.


Релиз:

Автор рипа: Stalker oK

Сэмпл: multi-up

Качество видео: DVDRip-AVC [DVD5]
Формат видео: MKV
Видео кодек: AVC
Аудио кодек: AC3
Видео: 2093 Кбит/сек, 566(anamorphic 618)*286 (2,2:1), в 25,000 кадр/сек, AVC (High@L4.1)
Аудио #1: Russian, 192 Кбит/сек, 48,0 КГц, 16 бит, 2 канала(ов), AC-3
Аудио #2: Deutsch, 192 Кбит/сек, 48,0 КГц, 16 бит, 2 канала(ов), AC-3 (отдельно)
Общее
Уникальный идентификатор : 237884399954441254183772482073088944329 (0xB2F6DE716054253593A1C5DE7E0EE8C9)
Полное имя : H:TRIUMFATOR-1964Triumfator_1964_DVDRip_AVC_MVO__stalkerok_new-teamTriumfator_1964_DVDRip_AVC_MVO__stalkerok_new-team.mkv
Формат : Matroska
Размер файла : 1,48 Гбайт
Продолжительность : 1 ч. 32 м.
Общий поток : 2287 Кбит/сек
Название фильма : Coriolano: eroe senza patria (1964) (New-Team) (Rip by Stalker oK)
Дата кодирования : UTC 2014-03-21 12:03:04
Программа кодирования : mkvmerge v6.2.0 ('Promised Land') built on Apr 28 2013 12:22:01
Библиотека кодирования : libebml v1.3.0 + libmatroska v1.4.0

Видео
Идентификатор : 1
Формат : AVC
Формат/Информация : Advanced Video Codec
Профиль формата : High@L4.1
Параметр CABAC формата : Да
Параметр ReFrames формата : 11 кадры
Идентификатор кодека : V_MPEG4/ISO/AVC
Продолжительность : 1 ч. 32 м.
Битрейт : 2093 Кбит/сек
Ширина : 566 пикс.
Высота : 286 пикс.
Соотношение сторон : 2,2:1
Соотношение сторон в оригинале : 2,2:1
Частота кадров : 25,000 кадр/сек
Цветовое пространство : YUV
Подвыборка цветности : 4:2:0
Битовая глубина : 8 бит
Тип развёртки : Прогрессивная
Бит/(Пиксели*Кадры) : 0.517
Размер потока : 1,33 Гбайт (90%)
Библиотека кодирования : x264 core 138 r2358 9e941d1
Настройки программы : cabac=1 / ref=11 / deblock=1:-2:-1 / analyse=0x3:0x133 / me=umh / subme=11 / psy=1 / psy_rd=1.00:0.15 / mixed_ref=1 / me_range=32 / chroma_me=1 / trellis=2 / 8x8dct=1 / cqm=0 / deadzone=21,11 / fast_pskip=0 / chroma_qp_offset=-3 / threads=6 / lookahead_threads=1 / sliced_threads=0 / nr=0 / decimate=0 / interlaced=0 / bluray_compat=0 / constrained_intra=0 / bframes=11 / b_pyramid=2 / b_adapt=2 / b_bias=0 / direct=3 / weightb=1 / open_gop=0 / weightp=2 / keyint=250 / keyint_min=25 / scenecut=40 / intra_refresh=0 / rc_lookahead=80 / rc=2pass / mbtree=1 / bitrate=2093 / ratetol=1.0 / qcomp=0.65 / qpmin=0 / qpmax=69 / qpstep=4 / cplxblur=20.0 / qblur=0.5 / vbv_maxrate=20000 / vbv_bufsize=25000 / nal_hrd=none / ip_ratio=1.40 / aq=2:1.00

Аудио
Идентификатор : 2
Формат : AC-3
Формат/Информация : Audio Coding 3
Расширение режима : CM (complete main)
Идентификатор кодека : A_AC3
Продолжительность : 1 ч. 32 м.
Вид битрейта : Постоянный
Битрейт : 192 Кбит/сек
Канал(ы) : 2 канала(ов)
Расположение каналов : Front: L R
Частота : 48,0 КГц
Битовая глубина : 16 бит
Метод сжатия : С потерями
Размер потока : 127 Мбайт (8%)
Заголовок : AC3 2.0 @ 192 kbps MVO
Язык : Russian
pb.wtf



Скачать Триумфатор через торрент http://i4.imageban.ru/out/2013/11/20/23afd37ba301cf29b16658cd2201c4ed.png Скачать фильм Триумфатор через торрент бесплантно в хорошем качестве Описание:В трудные для Рима времена доблестный воин Кай Март спасает город от нашествия врагов. Слава Кая Марта не дает покоя его ... 10 10 3
Торрент: Зарегистрирован [2014-03-23 09:06] · скачан: 18 раз
Статус: √ проверено
Размер: 1.61 GB
Как cкачать? Как скачать Триумфатор через торрент | qTorrent


>> Регистрируемся здесь <<






Отзывы и комментарии о схеме читаем и пишем здесь: ---> Отзывы и комментарии о схеме

Новые благодарочки в телеграм довольных пользователей:
скриншот   скриншот   скриншот   скриншот   скриншот
    Дорогой пользователь! Огромная просьба, поблагодарите релизера, оцените раздачу и оставьте свои комментарий, если Вы скачали Триумфатор через торрент бесплатно! Внесите свою лепту в развитие PiratBit!
    Комментировать посты могут только пользователи прошедшие не сложную регистрацию
    Показать сообщения:    

    Триумфатор через торрент
    Скачать бесплатно Триумфатор
    Триумфатор скачать торрент
    Триумфатор смотреть онлайн
    Cкачать фильм Триумфатор бесплатно
    Триумфатор скачать торрент в хорошем качестве
    Триумфатор смотреть онлайн бесплатно в хорошем качестве


    Вы не можете начинать темы
    Вы не можете отвечать на сообщения
    Вы не можете редактировать свои сообщения
    Вы не можете удалять свои сообщения
    Вы не можете голосовать в опросах
    Вы не можете прикреплять файлы к сообщениям
    Вы можете скачивать файлы