Ссылка на приватное зеркало всего за 1$. Внимание количество ограничено!!!

iTunes

1+1

iTunes

мы

WEB-DL

1

iTunes

Чернобыль

iTunes

Ральф против интернета

Лицензия

ПШазам

Лицензия

Оно 2

Лицензия

30
pack

Вам бонус

ВАЖНО

!!Акция!!

Alien_RageХит недели

RePack

Resident Evil 21

ИГРА 18+

pack

RePack

jed

!!Акция!!

Alien_Rage

RePack

fifa19

RePack

Assassins Creed: Odyssey

RePack

NEED FOR SPEED™ PAYBACK

3 сезон

9 сезон

Бесстыжие 9 сезон

Все сериалы

все сериалы на PB.wtf

RePack

FAR CRY 5
Ребята, катастрофически не хватает 1900р. для оплаты серверов за Октябрь (всвязи с блокировками трафик упал в 3 раза), 1-2р., выручайте.
  

После мрака свет / Post Tenebras Lux (Карлос Рейгадас / Carlos Reygadas) [2012, Мексика, Франция, Нидерланды, Германия, драма, HDRip-AVC] DVO (НТВ+) + Spa pb.wtf

После мрака свет через торрент pb.wtf

Раздают: 1 [ 0 KB/s ]
Размер: 2.18 GB | Добавлен: 5 лет 8 мес. назад | Торрент скачан:39 раз
Скачать  

23-03-2014 09:16 После мрака свет Скачать торрент  

После мрака свет
Post Tenebras Lux

«Включите все органы чувств»




Страна: Мексика, Франция, Нидерланды, Германия
Студия: arte France Cinéma, Centre National de la Cinématographie (CNC), Fonds Sud Cinéma
Жанр: драма
Год выпуска: 2012
Продолжительность: 01:54:44

Перевод: Профессиональный (двухголосый, закадровый) [НТВ+]
Cубтитры: Russian, English

Режиссер:
Карлос Рейгадас / Carlos Reygadas

В ролях:
Рут Рейгадас, Митси Ферран, Хоаким Чардонненс, Андер Верес, Торрес, Наталиа Асеведо, Адольфо Хименес Кастро, Элизар Рейгадас, Хосе Альберто Санчес

Описание:
Хуан и Наталия — классическая пара из Латинской Америки с двумя чудесными маленькими детьми. Они покидают Европу, оставляя в прошлом богемные тусовки, эротические эксперименты и привычный им социум — ради тихой и спокойной семейной жизни на родине, в Мексике, в их уединенном доме в горах. Нанимая строительную бригаду из местных жителей, чтоб привести дом в порядок, супруги неожиданно встречают среди них непримиримого врага.


Релиз:

Автор рипа: Stalker oK

Сэмпл: multi-up

Качество видео: HDRip-AVC [BDRip 1080p HDWing]
Формат видео: MKV
Видео кодек: AVC
Аудио кодек: AC3
Видео: 2081 Кбит/сек, 868*662 (4:3), в 24,000 кадр/сек, AVC
Аудио #1: Russian, 192 Кбит/сек, 48,0 КГц, 16 бит, 2 канала(ов), AC-3
Аудио #2: Spanish, 448 Кбит/сек, 48,0 КГц, 16 бит, 6 канала(ов), AC-3
Общее
Уникальный идентификатор : 180053834101481904146617533029392855193 (0x87751B68ECC9065989DC282DDB103099)
Полное имя : H:Post.Tenebras.Lux.2012Posle.mraka.svet.2012.HDRip-AVC.DVO.2.18..stalkerok.new-team.mkv
Формат : Matroska
Размер файла : 2,18 Гбайт
Продолжительность : 1 ч. 54 м.
Общий поток : 2723 Кбит/сек
Название фильма : Post Tenebras Lux (2012) (New-Team) (Rip by Stalker oK)
Дата кодирования : UTC 2014-03-21 18:10:38
Программа кодирования : mkvmerge v6.5.0 ('Isn't she lovely') built on Oct 20 2013 12:50:05
Библиотека кодирования : libebml v1.3.0 + libmatroska v1.4.1

Видео
Идентификатор : 1
Формат : AVC
Формат/Информация : Advanced Video Codec
Профиль формата : High@L4.1
Параметр CABAC формата : Да
Параметр ReFrames формата : 11 кадры
Идентификатор кодека : V_MPEG4/ISO/AVC
Продолжительность : 1 ч. 54 м.
Битрейт : 2081 Кбит/сек
Ширина : 868 пикс.
Высота : 662 пикс.
Соотношение сторон : 4:3
Частота кадров : 24,000 кадр/сек
Цветовое пространство : YUV
Подвыборка цветности : 4:2:0
Битовая глубина : 8 бит
Тип развёртки : Прогрессивная
Бит/(Пиксели*Кадры) : 0.151
Размер потока : 1,63 Гбайт (75%)
Библиотека кодирования : x264 core 138 r2358 9e941d1
Настройки программы : cabac=1 / ref=11 / deblock=1:-2:-1 / analyse=0x3:0x133 / me=umh / subme=10 / psy=1 / psy_rd=1.00:0.10 / mixed_ref=1 / me_range=32 / chroma_me=1 / trellis=2 / 8x8dct=1 / cqm=0 / deadzone=21,11 / fast_pskip=0 / chroma_qp_offset=-3 / threads=6 / lookahead_threads=1 / sliced_threads=0 / nr=0 / decimate=0 / interlaced=0 / bluray_compat=0 / constrained_intra=0 / bframes=11 / b_pyramid=2 / b_adapt=2 / b_bias=0 / direct=3 / weightb=1 / open_gop=0 / weightp=2 / keyint=240 / keyint_min=24 / scenecut=40 / intra_refresh=0 / rc_lookahead=80 / rc=2pass / mbtree=1 / bitrate=2081 / ratetol=1.0 / qcomp=0.65 / qpmin=0 / qpmax=69 / qpstep=4 / cplxblur=20.0 / qblur=0.5 / vbv_maxrate=20000 / vbv_bufsize=25000 / nal_hrd=none / ip_ratio=1.40 / aq=2:0.80

Аудио #1
Идентификатор : 2
Формат : AC-3
Формат/Информация : Audio Coding 3
Расширение режима : CM (complete main)
Идентификатор кодека : A_AC3
Продолжительность : 1 ч. 54 м.
Вид битрейта : Постоянный
Битрейт : 192 Кбит/сек
Канал(ы) : 2 канала(ов)
Расположение каналов : Front: L R
Частота : 48,0 КГц
Битовая глубина : 16 бит
Метод сжатия : С потерями
Размер потока : 158 Мбайт (7%)
Заголовок : AC3 2.0 @ 192 kbps DVO НТВ+
Язык : Russian

Аудио #2
Идентификатор : 3
Формат : AC-3
Формат/Информация : Audio Coding 3
Расширение режима : CM (complete main)
Идентификатор кодека : A_AC3
Продолжительность : 1 ч. 54 м.
Вид битрейта : Постоянный
Битрейт : 448 Кбит/сек
Канал(ы) : 6 канала(ов)
Расположение каналов : Front: L C R, Side: L R, LFE
Частота : 48,0 КГц
Битовая глубина : 16 бит
Метод сжатия : С потерями
Размер потока : 368 Мбайт (16%)
Заголовок : AC3 5.1 @ 448 kbps
Язык : Spanish

Текст #1
Идентификатор : 4
Формат : UTF-8
Идентификатор кодека : S_TEXT/UTF8
Идентификатор кодека/Информация : UTF-8 Plain Text
Заголовок : daft-digger
Язык : Russian

Текст #2
Идентификатор : 5
Формат : UTF-8
Идентификатор кодека : S_TEXT/UTF8
Идентификатор кодека/Информация : UTF-8 Plain Text
Язык : English
pb.wtf



Скачать После мрака свет через торрент http://i4.imageban.ru/out/2013/11/20/23afd37ba301cf29b16658cd2201c4ed.png Скачать фильм После мрака свет через торрент бесплантно в хорошем качестве Описание:Хуан и Наталия — классическая пара из Латинской Америки с двумя чудесными маленькими детьми. Они покидают Европу, оставляя в ... 5 10 1
Торрент: Зарегистрирован [2014-03-23 09:16] · скачан: 39 раз
Статус: √ проверено
Размер: 2.18 GB
Как cкачать? Как скачать После мрака свет через торрент | qTorrent

28-11-2019 20:33  

Отключить всю рекламу на сайте

    Дорогой пользователь! Огромная просьба, поблагодарите релизера, оцените раздачу и оставьте свои комментарий, если Вы скачали После мрака свет через торрент бесплатно! Внесите свою лепту в развитие PiratBit!
    Комментировать посты могут только пользователи прошедшие не сложную регистрацию
    Показать сообщения:    

    После мрака свет через торрент
    Скачать бесплатно После мрака свет
    После мрака свет скачать торрент
    После мрака свет смотреть онлайн
    Cкачать фильм После мрака свет бесплатно
    После мрака свет скачать торрент в хорошем качестве
    После мрака свет смотреть онлайн бесплатно в хорошем качестве


    Вы не можете начинать темы
    Вы не можете отвечать на сообщения
    Вы не можете редактировать свои сообщения
    Вы не можете удалять свои сообщения
    Вы не можете голосовать в опросах
    Вы не можете прикреплять файлы к сообщениям
    Вы можете скачивать файлы