Ссылка на приватное зеркало нашего сайта всего за 1$. Внимание количество ограничено!!!

2 сезон

iTunes

1 сезон

1

2 сезон

2 сезон

iTunes

1 сезон

RePack

30

Ultimate

ВАЖНО

ИГРА 18+

pack

RePack

MK11
pack

Забери бонус

RePack

jed

!!Акция!!

Alien_Rage

RePack

fifa19

RePack

Assassins Creed: Odyssey

RePack

NEED FOR SPEED™ PAYBACK

4 сезон

9 сезон

Бесстыжие 9 сезон

Все сериалы

все сериалы на PB.wtf

RePack

FAR CRY 5
  

В страхе / In Fear (Джереми Лавринг / Jeremy Lovering) [2013, Великобритания, триллер, BDRip 1080p,Любительский (одноголосый) [Xixidok] pb.wtf

В страхе через торрент pb.wtf

Размер: 5.57 GB | Добавлен: 6 лет 8 мес. назад | Торрент скачан:19 раз
Скачать  

23-03-2014 17:50 В страхе Скачать торрент  

Название: В страхе
Оригинальное название: In Fear
Год выхода: 2013
Выпущено: Великобритания
Продолжительность: 01:24:53
Озвучивание: Любительское (одноголосое) [ХиХиДок]
Субтитры: English
Жанр: триллер
Режиссер: Джереми Лавринг
В ролях: Йен де Кестекер, Элис Энглерт, Аллен Лич

Описание:
Застигнутый ночью в пути, замученный и потерянный, ты невольно даешь волю своим вечным страхам. Ведь в темноте таятся неведомые опасности. Но главный вызов — не дать соблазну и злу проникнуть в душу. Или, возможно, оно уже там. Том и Люси, недавно познакомились, и решили поехать загород на музыкальный фестиваль. Но не найдя отель, в котором забронировали номер, они заблудились в чаще леса, батарейки в навигаторе и телефоне сели и вот уже глубокой холодной ночью они слишком поздно поняли — из леса за ними кто-то наблюдает и хочет убить.



Файл

Качество: BDRip 1080p [SONiDO]
Формат: MKV
Видео кодек: AVC
Аудио кодек: AC3, DTS
Видео: 8433 kb/s/1920x816/23,976 кадра/сек
Аудио: Russian: AC3, 192 kb/s (2 ch)44,1 КГц
Аудио2: R English: DTS, 768 kb/s (6 ch)48,0 КГц
Дополнительно: Сохранены оригинальные чаптеры как на Blu-ray

Скачать: Сэмпл

Релиз группы:

Общее
In.Fear.2013.Blu.Ray.1080p.CINEMANIA.mkv
Формат : Matroska
Версия формата : Version 4 / Version 2
Размер файла : 5,57 Гбайт
Продолжительность : 1 ч. 24 м.
Общий поток : 9387 Кбит/сек
Название фильма : Release Group CINEMANIA
Дата кодирования : UTC 2014-03-23 17:32:13
Программа кодирования : mkvmerge v6.8.0 ('Theme for Great Cities') 64bit built on Mar 2 2014 21:34:26
Библиотека кодирования : libebml v1.3.0 + libmatroska v1.4.1

Видео
Идентификатор : 1
Формат : AVC
Формат/Информация : Advanced Video Codec
Профиль формата : High@L4.1
Параметр CABAC формата : Да
Параметр ReFrames формата : 5 кадров
Идентификатор кодека : V_MPEG4/ISO/AVC
Продолжительность : 1 ч. 24 м.
Битрейт : 8433 Кбит/сек
Ширина : 1920 пикселей
Высота : 816 пикселей
Соотношение сторон : 2,35:1
Режим частоты кадров : Постоянный
Частота кадров : 23,976 кадра/сек
Цветовое пространство : YUV
Субдискретизация насыщенности : 4:2:0
Битовая глубина : 8 бит
Тип развёртки : Прогрессивная
Бит/(Пиксели*Кадры) : 0.224
Размер потока : 4,89 Гбайт (88%)
Заголовок : Release Group CINEMANIA
Библиотека кодирования : x264 core 140 r2377 1ca7bb9
Настройки программы : cabac=1 / ref=5 / deblock=1:0:0 / analyse=0x3:0x133 / me=umh / subme=8 / psy=1 / psy_rd=1.00:0.00 / mixed_ref=1 / me_range=16 / chroma_me=1 / trellis=1 / 8x8dct=1 / cqm=0 / deadzone=21,11 / fast_pskip=0 / chroma_qp_offset=-2 / threads=12 / lookahead_threads=2 / sliced_threads=0 / nr=0 / decimate=1 / interlaced=0 / bluray_compat=0 / constrained_intra=0 / bframes=3 / b_pyramid=2 / b_adapt=2 / b_bias=0 / direct=3 / weightb=1 / open_gop=0 / weightp=2 / keyint=250 / keyint_min=23 / scenecut=40 / intra_refresh=0 / rc_lookahead=50 / rc=2pass / mbtree=1 / bitrate=8433 / ratetol=1.0 / qcomp=0.60 / qpmin=0 / qpmax=69 / qpstep=4 / cplxblur=20.0 / qblur=0.5 / ip_ratio=1.40 / aq=1:1.00
Язык : English
Default : Да
Forced : Нет

Аудио #1
Идентификатор : 2
Формат : AC-3
Формат/Информация : Audio Coding 3
Расширение режима : CM (complete main)
Параметр Endianness формата : Big
Идентификатор кодека : A_AC3
Продолжительность : 1 ч. 24 м.
Вид битрейта : Постоянный
Битрейт : 192 Кбит/сек
Каналы : 2 канала
Расположение каналов : Front: L R
Частота : 44,1 КГц
Битовая глубина : 16 бит
Метод сжатия : С потерями
Размер потока : 117 Мбайт (2%)
Заголовок : ХиХидок
Язык : Russian
Default : Да
Forced : Да

Аудио #2
Идентификатор : 3
Формат : DTS
Формат/Информация : Digital Theater Systems
Режим : 16
Параметр Endianness формата : Big
Идентификатор кодека : A_DTS
Продолжительность : 1 ч. 24 м.
Вид битрейта : Постоянный
Битрейт : 768 Кбит/сек
Каналы : 6 каналов
Расположение каналов : Front: L C R, Side: L R, LFE
Частота : 48,0 КГц
Битовая глубина : 24 бит
Метод сжатия : С потерями
Размер потока : 466 Мбайт (8%)
Язык : English
Default : Нет
Forced : Нет

Текст
Идентификатор : 4
Формат : UTF-8
Идентификатор кодека : S_TEXT/UTF8
Идентификатор кодека/Информация : UTF-8 Plain Text
Язык : English
Default : Нет
Forced : Нет

Меню
00:00:00.000 : en:00:00:00.000
00:07:41.336 : en:00:07:41.336
00:13:51.873 : en:00:13:51.873
00:22:08.285 : en:00:22:08.285
00:27:04.414 : en:00:27:04.414
00:33:15.452 : en:00:33:15.452
00:41:13.513 : en:00:41:13.513
00:47:55.289 : en:00:47:55.289
00:54:40.402 : en:00:54:40.402
01:00:37.884 : en:01:00:37.884
01:08:35.153 : en:01:08:35.153
01:14:29.507 : en:01:14:29.507
pb.wtf



Скачать В страхе через торрент http://5.firepic.org/5/images/2014-03/23/yayzkz4l2bha.jpg Скачать фильм В страхе через торрент бесплантно в хорошем качестве Описание: Застигнутый ночью в пути, замученный и потерянный, ты невольно даешь волю своим вечным страхам. Ведь в темноте таятся неведомые ... 10 10 1
Торрент: Зарегистрирован [2014-03-23 17:50] · скачан: 19 раз
Статус: T временная
Размер: 5.57 GB
Как cкачать? Как скачать В страхе через торрент | qTorrent

% Раздел Тема Автор DL S | L
Фильмы до 2000 г. [ 7.13 GB ] Страх и ненависть в Лас-Вегасе / Fear and Loathing in Las-Vegas [1998 BDRip-AVC] DUB+DVO4xAVO+3xMVO bober100 Скачать
1 | 0
Фильмы до 2000 г. [ 2.19 GB ] Страх и ненависть в Лас-Вегасе  / Fear and Loathing in Las Vegas [1998 ] aspace Скачать
3 | 0
Фильмы (HD 720p, 1080p) (48-60 fps) [ 12.8 GB ] Страх и ненависть в Лас-Вегасе / Fear and Loathing in Las Vegas [1998 BDRip 720p / 60 FPS Dub DVO AVO Original] Tiberiumsun69 Скачать
1 | 0
Фильмы до 2000 г. [ 2.84 GB ] Страх и ненависть в Лас-Вегасе / Fear and Loathing in Las Vegas [1998 BDRip-AVC ] _KaisiK_ Скачать
1 | 0
T Фильмы 2013 (Звук TS, Cam, VO, DVO) [ 1.34 GB ] В страхе / In Fear [2013 HDRipЛюбительский [Xixidok] Ворон Скачать
1 | 0
Лесбиянки [ 1.76 GB ] No Fear in Love / Нет страха в любви [Release date: 7 Nov2010 Lesbians] Shmel Скачать
1 | 0

28-11-2019 20:33  

Отключить всю рекламу на сайте

    Дорогой пользователь! Огромная просьба, поблагодарите релизера, оцените раздачу и оставьте свои комментарий, если Вы скачали В страхе через торрент бесплатно! Внесите свою лепту в развитие PiratBit!
    Комментировать посты могут только пользователи прошедшие не сложную регистрацию
    Показать сообщения:    

    В страхе через торрент
    Скачать бесплатно В страхе
    В страхе скачать торрент
    В страхе смотреть онлайн
    Cкачать фильм В страхе бесплатно
    В страхе скачать торрент в хорошем качестве
    В страхе смотреть онлайн бесплатно в хорошем качестве


    Вы не можете начинать темы
    Вы не можете отвечать на сообщения
    Вы не можете редактировать свои сообщения
    Вы не можете удалять свои сообщения
    Вы не можете голосовать в опросах
    Вы не можете прикреплять файлы к сообщениям
    Вы можете скачивать файлы