Ссылка на приватное зеркало нашего сайта всего за 1$. Внимание количество ограничено!!!

2 сезон

iTunes

1 сезон

1

2 сезон

2 сезон

iTunes

1 сезон

RePack

30

Ultimate

ВАЖНО

ИГРА 18+

pack

RePack

MK11
pack

Забери бонус

RePack

jed

!!Акция!!

Alien_Rage

RePack

fifa19

RePack

Assassins Creed: Odyssey

RePack

NEED FOR SPEED™ PAYBACK

4 сезон

9 сезон

Бесстыжие 9 сезон

Все сериалы

все сериалы на PB.wtf

RePack

FAR CRY 5
  

Отголоски прошлого / Little Ashes (Пол Моррисон / Paul Morrison) [2008, Великобритания, Испания, драма, биография, BDRip] MVO + Sub rus + Original (Eng) pb.wtf

Отголоски прошлого через торрент pb.wtf

Размер: 2.18 GB | Добавлен: 6 лет 8 мес. назад | Торрент скачан:41 раз
Скачать  

23-03-2014 18:26 Отголоски прошлого Скачать торрент  

Отголоски прошлого / Little Ashes

«Сальвадор Дали: Любовь. Искусство. Предательство»

  • Год выпуска: 2008
  • Страна: Великобритания, Испания
  • Жанр: драма, мелодрама, биография

  • Продолжительность: 01:52:03
  • Перевод: Профессиональный (многоголосый, закадровый)

  • Субтитры: русские-softsub (SRT)
  • Режиссер: Пол Моррисон / Paul Morrison
  • В ролях:

    Хавьер Белтран (Federico García Lorca), Роберт Паттинсон (Salvador Dalí), Мэттью МакНалти (Luis Buñuel), Марина Гэтелл (Magdalena), Бруно Оро (Paco), Эстер Нубиола (Adela), Марк Пуйоль (Carlos), Арли Жовер (Gala), Симон Андреу (Fernando de Valle), Вики Пенья (Tía de Magdalena), Рубен Арройо (Rafael), Диана Гомез (Ana María)
    • Описание:
      В 1922-ом году в Мадрид приезжает 18-летний Сальвадор Дали. Столица Испании того времени становится местом притяжения самых ярких молодых умов.
      Дали, талантливый и увлеченный живописью, стремится стать великим художником. В университете он знакомится с уже признанным поэтом Федерико Гарсиа Лоркой и с режиссером Луисом Бунюэлем. Молодые люди становятся лидерами испанской творческой интеллигенции, но их межличностные отношения кардинально меняются.

    Мировая премьера:7 октября 2008

    • Качество: BDRip
    • Формат: AVI
    • Видео кодек: XviD
    • Аудио кодек:AC3
    • Видео: XviD, 720x400 (16:9), 1872 kbps, 23,976 fps, 0,271 bpp
    • Аудио №1: AC3 / 5.1 / 48 kHz / 448 kbps / 16 bit/Rus
      Аудио №2: AC3 / 5.1 / 48 kHz / 448 kbps / 16 bit/Eng


    Код:

    General
    Complete name                            : D:ТорентыОтголоски прошлого (Мелкие останки)Отголоски прошлого (Мелкие останки).avi
    Format                                   : AVI
    Format/Info                              : Audio Video Interleave
    Format profile                           : OpenDML
    File size                                : 2.18 GiB
    Duration                                 : 1h 52mn
    Overall bit rate                         : 2 786 Kbps
    Movie name                               : Отголоски прошлого (Мелкие останки)
    Director                                 : derdevil13
    Writing application                      : VirtualDubMod 1.5.10.2 (build 2542/release)

    Video
    ID                                       : 0
    Format                                   : MPEG-4 Visual
    Format profile                           : Advanced Simple@L5
    Format settings, BVOP                    : 1
    Format settings, QPel                    : No
    Format settings, GMC                     : No warppoints
    Format settings, Matrix                  : Custom
    Codec ID                                 : XVID
    Codec ID/Hint                            : XviD
    Duration                                 : 1h 52mn
    Bit rate                                 : 1 873 Kbps
    Width                                    : 720 pixels
    Height                                   : 400 pixels
    Display aspect ratio                     : 16:9
    Frame rate                               : 23.976 fps
    Color space                              : YUV
    Chroma subsampling                       : 4:2:0
    Bit depth                                : 8 bits
    Scan type                                : Progressive
    Compression mode                         : Lossy
    Bits/(Pixel*Frame)                       : 0.271
    Stream size                              : 1.47 GiB (67%)
    Writing library                          : XviD 1.2.1 (UTC 2008-12-04)

    Audio #1
    ID                                       : 1
    Format                                   : AC-3
    Format/Info                              : Audio Coding 3
    Mode extension                           : CM (complete main)
    Codec ID                                 : 2000
    Duration                                 : 1h 52mn
    Bit rate mode                            : Constant
    Bit rate                                 : 448 Kbps
    Channel(s)                               : 6 channels
    Channel positions                        : Front: L C R, Side: L R, LFE
    Sampling rate                            : 48.0 KHz
    Bit depth                                : 16 bits
    Compression mode                         : Lossy
    Stream size                              : 359 MiB (16%)
    Alignment                                : Split accross interleaves
    Interleave, duration                     : 42 ms (1.00 video frame)
    Interleave, preload duration             : 500 ms

    Audio #2
    ID                                       : 2
    Format                                   : AC-3
    Format/Info                              : Audio Coding 3
    Mode extension                           : CM (complete main)
    Codec ID                                 : 2000
    Duration                                 : 1h 52mn
    Bit rate mode                            : Constant
    Bit rate                                 : 448 Kbps
    Channel(s)                               : 6 channels
    Channel positions                        : Front: L C R, Side: L R, LFE
    Sampling rate                            : 48.0 KHz
    Bit depth                                : 16 bits
    Compression mode                         : Lossy
    Stream size                              : 359 MiB (16%)
    Alignment                                : Split accross interleaves
    Interleave, duration                     : 42 ms (1.00 video frame)
    Interleave, preload duration             : 500 ms

    Скриншоты:

    Трейлеры к фильмам [2014]
    © Оформление by Raven pb.wtf



  • Скачать Отголоски прошлого через торрент http://i3.imageban.ru/out/2014/03/23/e6e43284c63c5c163a50e3051dd13ce3.jpg Скачать фильм Отголоски прошлого через торрент бесплантно в хорошем качестве Описание:В 1922-ом году в Мадрид приезжает 18-летний Сальвадор Дали. Столица Испании того времени становится местом притяжения самых ярких ... 10 10 3
    Info! Золотая раздача, скачанное не засчитывается.
    Торрент: Зарегистрирован [2014-03-23 18:26] · скачан: 41 раз
    Статус: √ проверено
    Размер: 2.18 GB
    Как cкачать? Как скачать Отголоски прошлого через торрент | qTorrent

    % Раздел Тема Автор DL S | L
    Фильмы (DVD фильмы) [ 4.37 GB ] Отголоски прошлого / Little Ashes [2008 биография] aspace Скачать
    1 | 0
    Фильмы 2009 [ 1.37 GB ] Отголоски прошлого / Little Ashes [2008 биография DVDRip] Joup Скачать
    1 | 0

    28-11-2019 20:33  

    Отключить всю рекламу на сайте

      Дорогой пользователь! Огромная просьба, поблагодарите релизера, оцените раздачу и оставьте свои комментарий, если Вы скачали Отголоски прошлого через торрент бесплатно! Внесите свою лепту в развитие PiratBit!
      Комментировать посты могут только пользователи прошедшие не сложную регистрацию
      Показать сообщения:    

      Отголоски прошлого через торрент
      Скачать бесплатно Отголоски прошлого
      Отголоски прошлого скачать торрент
      Отголоски прошлого смотреть онлайн
      Cкачать фильм Отголоски прошлого бесплатно
      Отголоски прошлого скачать торрент в хорошем качестве
      Отголоски прошлого смотреть онлайн бесплатно в хорошем качестве


      Вы не можете начинать темы
      Вы не можете отвечать на сообщения
      Вы не можете редактировать свои сообщения
      Вы не можете удалять свои сообщения
      Вы не можете голосовать в опросах
      Вы не можете прикреплять файлы к сообщениям
      Вы можете скачивать файлы