1 сезон

1 сезон

iTunes

1

КиноПоиск HD

Кинопоиск HD

iTunes

13

1 сезон

RePack

30

Ultimate

ВАЖНО

ИГРА 18+

pack

RePack

MK11
pack

Легкие деньги

RePack

jed

RePack

fifa19

RePack

RDR2

RePack

NEED FOR SPEED™ PAYBACK

4 сезон

9 сезон

Бесстыжие 9 сезон

Все сериалы

все сериалы на PB.wtf

RePack

FAR CRY 5
  
Magnet ссылка

8 миля / 8 Mile (Кёртис Хэнсон) [2002 г., драма, музыка, HDRip-AVC, Дубляж + Оригинал + Любительский (одноголосый), без цензуры] от R.G. PiratFilms pb.wtf

8 миля через торрент pb.wtf

Размер: 2.91 GB | Добавлен: 7 лет назад | Торрент скачан:101 раз
Скачать  

23-03-2014 18:47 8 миля Скачать торрент  

Год выпуска: 2002
Страна: США
Жанр: драма, музыка,
Продолжительность: 01:50:27
Перевод: Дубляж + Оригинал +Любительский (одноголосый), без цензуры)
Субтитры: есть, во время чтения репа

Режиссер: Кёртис Хэнсон

В ролях: Эминем, Ким Бейсингер, Мехи Файфер, Бриттани Мерфи, Ивэн Джонс, Омар Бенсон Миллер, Де`Анджело Уилсон, Юджин Бирд, Тэрин Мэннинг, Ларри Хадсон,

Описание: Детройт, 1995 год. Блестящая и многообещающая политика индустриального развития города терпит крах и приводит к хаосу и неразберихе, что в результате выливается в один из самых серьезных в американской истории конфликтов между белым и цветным населением. Люди, мирно жившие рядом, оказались по разные стороны баррикад.
Шоссе «8 Миля» отделяющее Детройт от пригорода, становится разделительной полосой между черными и белыми. Происходящее в городе находит свое отражение в музыке. В бедных кварталах пригорода, где главная цель - выживание, для многих обитателей хип-хоп становится эмоциональной отдушиной, средством помогающим вырваться из жесткой повседневной реальности.

Качество: HDRip-AVC
Формат: MKV
Видео кодек: AVC
Аудио кодек: AC3
Видео: AVC, 1024x434 (2.35:1), 23.976 fps, 2 742 Kbps (0.257 bit/pixel)
Аудио#1: AC-3, 48.0 KHz, 2 ch, 192 Kbps, CBR Дубляж стс
Аудио#2: AC-3, 48.0 KHz, 6 ch, 384 Kbps, CBR Любительский (одноголосый), без цензуры
Аудио#3: AC-3, 48.0 KHz, 6 ch, 448 Kbps, CBR Оригинал

Релиз от: Рип by White Smoke

Код:

---[Information] [22.03.2014 10:32:19] x264 [info]: frame I:1328  Avg QP:15.08  size: 63434  PSNR Mean Y:47.66 U:50.44 V:52.04 Avg:48.52 Global:48.30
---[Information] [22.03.2014 10:32:19] x264 [info]: frame P:32961 Avg QP:18.03  size: 24697  PSNR Mean Y:45.15 U:48.63 V:50.35 Avg:46.13 Global:45.84
---[Information] [22.03.2014 10:32:19] x264 [info]: frame B:124618 Avg QP:19.43  size: 11019  PSNR Mean Y:44.22 U:48.55 V:50.35 Avg:45.33 Global:45.00

[hr]Общее
Уникальный идентификатор         : 223986892827591401934385290466767001030 (0xA8824E7089B06AB8A81B270CF575D5C6)
Полное имя                       : C:Games8 Mile.2002.HDRip-AVC.by.White Smoke.R.G. PiratFilms.mkv
Формат                           : Matroska
Размер файла                     : 2,91 Гбайт
Продолжительность                : 1 ч. 50 м.
Общий поток                      : 3768 Кбит/сек
Название фильма                  : 8 Mile.2002.HDRip-AVC.
Дата кодирования                 : UTC 2014-03-22 14:31:26
Программа кодирования            : mkvmerge v6.8.0 ('Theme for Great Cities') 64bit built on Mar  2 2014 21:34:26
Библиотека кодирования           : libebml v1.3.0 + libmatroska v1.4.1

Видео
Идентификатор                    : 1
Формат                           : AVC
Формат/Информация                : Advanced Video Codec
Профиль формата                  : High@L4.1
Параметр CABAC формата           : Да
Параметр ReFrames формата        : 10 кадры
Идентификатор кодека             : V_MPEG4/ISO/AVC
Продолжительность                : 1 ч. 50 м.
Битрейт                          : 2742 Кбит/сек
Ширина                           : 1024 пикс.
Высота                           : 434 пикс.
Соотношение сторон               : 2,35:1
Частота кадров                   : 23,976 кадр/сек
Цветовое пространство            : YUV
Подвыборка цветности             : 4:2:0
Битовая глубина                  : 8 бит
Тип развёртки                    : Прогрессивная
Бит/(Пиксели*Кадры)              : 0.257
Размер потока                    : 2,06 Гбайт (71%)
Библиотека кодирования           : x264 core 138 r2358 9e941d1
Настройки программы              : cabac=1 / ref=10 / deblock=1:-2:-1 / analyse=0x3:0x113 / me=umh / subme=9 / psy=1 / psy_rd=1.00:0.00 / mixed_ref=1 / me_range=32 / chroma_me=1 / trellis=2 / 8x8dct=1 / cqm=0 / deadzone=21,11 / fast_pskip=0 / chroma_qp_offset=-2 / threads=6 / lookahead_threads=1 / sliced_threads=0 / nr=0 / decimate=1 / interlaced=0 / bluray_compat=0 / constrained_intra=0 / bframes=8 / b_pyramid=2 / b_adapt=2 / b_bias=10 / direct=1 / weightb=1 / open_gop=0 / weightp=2 / keyint=240 / keyint_min=23 / scenecut=40 / intra_refresh=0 / rc_lookahead=40 / rc=2pass / mbtree=1 / bitrate=2742 / ratetol=1.0 / qcomp=0.70 / qpmin=0 / qpmax=69 / qpstep=4 / cplxblur=20.0 / qblur=0.5 / ip_ratio=1.40 / aq=1:1.00
Язык                             : English

Аудио #1
Идентификатор                    : 2
Формат                           : AC-3
Формат/Информация                : Audio Coding 3
Расширение режима                : CM (complete main)
Идентификатор кодека             : A_AC3
Продолжительность                : 1 ч. 50 м.
Вид битрейта                     : Постоянный
Битрейт                          : 192 Кбит/сек
Канал(ы)                         : 2 канала(ов)
Расположение каналов             : Front: L R
Частота                          : 48,0 КГц
Битовая глубина                  : 16 бит
Метод сжатия                     : С потерями
Размер потока                    : 152 Мбайт (5%)

Аудио #2
Идентификатор                    : 3
Формат                           : AC-3
Формат/Информация                : Audio Coding 3
Расширение режима                : CM (complete main)
Идентификатор кодека             : A_AC3
Продолжительность                : 1 ч. 50 м.
Вид битрейта                     : Постоянный
Битрейт                          : 384 Кбит/сек
Канал(ы)                         : 6 канала(ов)
Расположение каналов             : Front: L C R, Side: L R, LFE
Частота                          : 48,0 КГц
Битовая глубина                  : 16 бит
Метод сжатия                     : С потерями
Размер потока                    : 303 Мбайт (10%)

Аудио #3
Идентификатор                    : 4
Формат                           : AC-3
Формат/Информация                : Audio Coding 3
Расширение режима                : CM (complete main)
Идентификатор кодека             : A_AC3
Продолжительность                : 1 ч. 50 м.
Вид битрейта                     : Постоянный
Битрейт                          : 448 Кбит/сек
Канал(ы)                         : 6 канала(ов)
Расположение каналов             : Front: L C R, Side: L R, LFE
Частота                          : 48,0 КГц
Битовая глубина                  : 16 бит
Метод сжатия                     : С потерями
Размер потока                    : 354 Мбайт (12%)

Текст
Идентификатор                    : 5
Формат                           : UTF-8
Идентификатор кодека             : S_TEXT/UTF8
Идентификатор кодека/Информация  : UTF-8 Plain Text


pb.wtf



Скачать 8 миля через торрент https://pic.kartinco.top/images/6/vxl71.jpg Скачать фильм 8 миля через торрент бесплантно в хорошем качестве Описание: Детройт, 1995 год. Блестящая и многообещающая политика индустриального развития города терпит крах и приводит к хаосу и ... 10 10 10
Info! Золотая раздача, скачанное не засчитывается.
Торрент: Зарегистрирован [2014-03-23 18:47] · скачан: 101 раз
Статус: √ проверено
Размер: 2.91 GB
Как cкачать? Как скачать 8 миля через торрент | UTorrent

28-11-2019 20:33  

Отключить всю рекламу на сайте

    Дорогой пользователь! Огромная просьба, поблагодарите релизера, оцените раздачу и оставьте свои комментарий, если Вы скачали 8 миля через торрент бесплатно! Внесите свою лепту в развитие PiratBit!
    Комментировать посты могут только пользователи прошедшие не сложную регистрацию
    Показать сообщения:    

    8 миля через торрент
    Скачать бесплатно 8 миля
    8 миля скачать торрент
    8 миля смотреть онлайн
    Cкачать фильм 8 миля бесплатно
    8 миля скачать торрент в хорошем качестве
    8 миля смотреть онлайн бесплатно в хорошем качестве


    Вы не можете начинать темы
    Вы не можете отвечать на сообщения
    Вы не можете редактировать свои сообщения
    Вы не можете удалять свои сообщения
    Вы не можете голосовать в опросах
    Вы не можете прикреплять файлы к сообщениям
    Вы можете скачивать файлы