Ссылка на приватное зеркало нашего сайта всего за 1$. Внимание количество ограничено!!!

2 сезон

iTunes

1 сезон

1

iTunes

iTunes

iTunes

1 сезон

RePack

30

ИГРА 18+

pack

ВАЖНО

!!Акция!!

Alien_RageХит недели

RePack

MK11
pack

Забери бонус

RePack

jed

!!Акция!!

Alien_Rage

RePack

fifa19

RePack

Assassins Creed: Odyssey

RePack

NEED FOR SPEED™ PAYBACK

4 сезон

9 сезон

Бесстыжие 9 сезон

Все сериалы

все сериалы на PB.wtf

RePack

FAR CRY 5
  

Рио / Rio (Карлос Салдана) [2011, мультфильм, мюзикл, комедия, приключения, семейный, HDRip-AVC] DUB [Лицензия] от R.G. PiratFilms pb.wtf

Рио через торрент pb.wtf

Размер: 1.46 GB | Добавлен: 6 лет 7 мес. назад | Торрент скачан:1185 раз
Скачать  

24-03-2014 04:33 Рио Скачать торрент  

Рио / Rio
«Он отправляется в самое удивительное и волшебное место на Земле... домой»



Год выпуска: 2011
Страна: США
Жанр: мультфильм, мюзикл, комедия, приключения, семейный
Длительность: 01:35:57
Перевод: Профессиональный (Дубляж) [Лицензия]

Режиссер: Карлос Салдана

В ролях: Джесси Айзенберг, Энн Хэтэуэй, Джейми Фокс, Уилл Ай Эм, Родриго Санторо, Карен Дишер, Карлос Понсе, Джордж Лопес, Джемейн Клемент, Джейсон Фриккионе

Описание: Попугай-зануда оставляет свою уютную сытую жизнь в клетке и из Миннесоты отправляется в Рио-де-Жанейро, город грез всех и каждого. Неминуемые встречи, препятствия, опасности и любовь к последней представительнице его рода заставляют нашего героя по-другому посмотреть на мир и из скучного домоседа превратиться в милого симпатягу, узнавшего цену дружбе и смелости.

|

Качество: HDRip-AVC (Rip by Demonessa)
Исходник: BDRip 1080p
Формат: MKV
Видео кодек: H.264
Аудио кодек: AC3
Видео: H.264, 1024*426, 23,976 кадр/сек, 1727 Кбит/сек, 0.165 Бит/(Пиксели*Кадры)
Аудио: AC3, 448 Кбит/сек, 6 каналов, 48,0 КГц

Код:

x264 [info]: frame I:1225  Avg QP:15.32  size: 65439  PSNR Mean Y:48.25 U:50.41 V:50.43 Avg:48.84 Global:48.29
x264 [info]: frame P:40130 Avg QP:18.48  size: 15285  PSNR Mean Y:46.02 U:48.36 V:48.32 Avg:46.63 Global:45.99
x264 [info]: frame B:96691 Avg QP:21.56  size:  5676  PSNR Mean Y:45.56 U:48.21 V:48.12 Avg:46.23 Global:45.47
x264 [info]: consecutive B-frames:  4.5% 10.1% 12.5% 46.2%  9.0% 15.4%  1.2%  0.6%  0.5%

Код:

Общее
Уникальный идентификатор         : 238031313381421490300719460278051193061 (0xB31329D5852DEBEB8A6D688133AEC0E5)
Полное имя                       : G:VideoRip by DemonessaRio Rip by Demonessa.mkv
Формат                           : Matroska
Размер файла                     : 1,46 Гбайт
Продолжительность                : 1 ч. 35 м.
Общий поток                      : 2176 Кбит/сек
Дата кодирования                 : UTC 2014-03-24 04:40:09
Программа кодирования            : mkvmerge v6.5.0 ('Isn't she lovely') built on Oct 20 2013 12:50:05
Библиотека кодирования           : libebml v1.3.0 + libmatroska v1.4.1

Видео
Идентификатор                    : 1
Формат                           : AVC
Формат/Информация                : Advanced Video Codec
Профиль формата                  : High@L4.1
Параметр CABAC формата           : Да
Параметр ReFrames формата        : 12 кадры
Идентификатор кодека             : V_MPEG4/ISO/AVC
Продолжительность                : 1 ч. 35 м.
Битрейт                          : 1727 Кбит/сек
Ширина                           : 1024 пикс.
Высота                           : 426 пикс.
Соотношение сторон               : 2,40:1
Частота кадров                   : 23,976 кадр/сек
Цветовое пространство            : YUV
Подвыборка цветности             : 4:2:0
Битовая глубина                  : 8 бит
Тип развёртки                    : Прогрессивная
Бит/(Пиксели*Кадры)              : 0.165
Размер потока                    : 1,13 Гбайт (77%)
Заголовок                        : Rip by Demonessa
Библиотека кодирования           : x264 core 138 r2358 9e941d1
Настройки программы              : cabac=1 / ref=12 / deblock=1:-2:-1 / analyse=0x3:0x113 / me=umh / subme=9 / psy=1 / psy_rd=1.00:0.00 / mixed_ref=1 / me_range=32 / chroma_me=1 / trellis=2 / 8x8dct=1 / cqm=0 / deadzone=21,11 / fast_pskip=1 / chroma_qp_offset=-2 / threads=4 / lookahead_threads=1 / sliced_threads=0 / nr=0 / decimate=1 / interlaced=0 / bluray_compat=0 / constrained_intra=0 / bframes=8 / b_pyramid=2 / b_adapt=2 / b_bias=0 / direct=1 / weightb=1 / open_gop=0 / weightp=2 / keyint=240 / keyint_min=23 / scenecut=40 / intra_refresh=0 / rc_lookahead=40 / rc=2pass / mbtree=1 / bitrate=1727 / ratetol=1.0 / qcomp=0.75 / qpmin=10 / qpmax=51 / qpstep=4 / cplxblur=20.0 / qblur=0.5 / ip_ratio=1.40 / aq=1:1.00
Язык                             : English

Аудио
Идентификатор                    : 2
Формат                           : AC-3
Формат/Информация                : Audio Coding 3
Расширение режима                : CM (complete main)
Идентификатор кодека             : A_AC3
Продолжительность                : 1 ч. 35 м.
Вид битрейта                     : Постоянный
Битрейт                          : 448 Кбит/сек
Канал(ы)                         : 6 канала(ов)
Расположение каналов             : Front: L C R, Side: L R, LFE
Частота                          : 48,0 КГц
Битовая глубина                  : 16 бит
Метод сжатия                     : С потерями
Размер потока                    : 308 Мбайт (21%)
Заголовок                        : Дубляж
Язык                             : Russian

pb.wtf



Скачать Рио через торрент http://pic.kartinco.top/images/6/l4lfh.jpg Скачать фильм Рио через торрент бесплантно в хорошем качестве Описание: Попугай-зануда оставляет свою уютную сытую жизнь в клетке и из Миннесоты отправляется в Рио-де-Жанейро, город грез всех и ... 10 10 38
Info! Золотая раздача, скачанное не засчитывается.
Торрент: Зарегистрирован [2014-03-24 04:33] · скачан: 1 185 раз
Статус: √ проверено
Размер: 1.46 GB
Как cкачать? Как скачать Рио через торрент | qTorrent

% Раздел Тема Автор DL S | L
Фильмы [HD 720p, 1080p] (Хороший звук DUB, MVO) [ 1.67 GB ] Цезарь должен умереть / Cesare deve morire [2012 Италия HDTVRip 720p] MVO [1 канал] от R.G. PiratFilms Messa-fan Скачать
1 | 0
Зарубежные Мультфильмы (BDRip 1080p, 720p, Blu-ray, BD-Remux) [ 5.43 GB ] Рио 2 / Rio 2 [2014 мультфильм BDRip 720p] [] + Ukr + Original + Subs от R.G. PiratFilms Messa-fan Скачать
1 | 0

28-11-2019 20:33  

Отключить всю рекламу на сайте

02-11-2018 13:36 Рио Скачать торрент  

Помоги мнеpb.wtf



06-11-2018 09:38 Рио Скачать торрент  

Скоростиpb.wtf



    Дорогой пользователь! Огромная просьба, поблагодарите релизера, оцените раздачу и оставьте свои комментарий, если Вы скачали Рио через торрент бесплатно! Внесите свою лепту в развитие PiratBit!
    Комментировать посты могут только пользователи прошедшие не сложную регистрацию
    Показать сообщения:    

    Рио через торрент
    Скачать бесплатно Рио
    Рио скачать торрент
    Рио смотреть онлайн
    Cкачать фильм Рио бесплатно
    Рио скачать торрент в хорошем качестве
    Рио смотреть онлайн бесплатно в хорошем качестве


    Вы не можете начинать темы
    Вы не можете отвечать на сообщения
    Вы не можете редактировать свои сообщения
    Вы не можете удалять свои сообщения
    Вы не можете голосовать в опросах
    Вы не можете прикреплять файлы к сообщениям
    Вы можете скачивать файлы