2 сезон

iTunes

MVO

1

2 сезон

iTunes

iTunes

1 сезон

RePack

30

Ultimate

ВАЖНО

ИГРА 18+

pack

RePack

MK11
pack

Легкие деньги

RePack

jed

RePack

fifa19

RePack

RDR2

RePack

NEED FOR SPEED™ PAYBACK

4 сезон

9 сезон

Бесстыжие 9 сезон

Все сериалы

все сериалы на PB.wtf

RePack

FAR CRY 5

Anonymous, доброй ночи, мы не успеваем собрать деньги на оплату серверов за декабрь и январь, помогите нам пожалуйста в это трудное время. В качестве благодарности мы отключим Вам всю рекламу на сайте (укажите свой ник в строку Ваше имя)!

×
  
Magnet ссылка

Взрослые дети развода / A.C.O.D (Стью Зичерман / Stu Zicherman) [2013, США, комедия, HDRip,Профессиональный [Дубляж - Лицензия/ iTunes] pb.wtf

Взрослые дети развода через торрент pb.wtf

Размер: 1.37 GB | Добавлен: 6 лет 9 мес. назад | Торрент скачан:1362 раза
Скачать  

25-03-2014 15:08 Взрослые дети развода Скачать торрент  

Взрослые дети развода / A.C.O.D.

«He's about to ruin a perfectly good divorce»

  • Год выпуска: 2013
  • Страна: США
  • Жанр: комедия

  • Продолжительность: 01:27:43
  • Перевод: Профессиональный [Дубляж - Лицензия/ iTunes]

  • Субтитры: Нет
  • Режиссер: Стью Зичерман / Stu Zicherman
  • В ролях:

    Адам Скотт (Carter), Ричард Дженкинс (Hugh), Кэтрин О’Хара (Melissa), Эми Полер (Sondra), Кларк Дьюк (Trey), Джессика Альба (Michelle), Джейн Линч (Dr. Judith), Мэри Элизабет Уинстэд (Lauren), Кен Ховард (Gary), Валери Тиан (Kieko), Сара Бёрнс (Margo), Джэми Ренелл (Tyler)
    • Описание:
      Главный герой на протяжении 20 лет разрывается между разведенными родителями. Ситуация еще более осложняется, когда его брат решает жениться, в результате чего вражда родителей выходит на новую фазу. А отец двух братьев, чье нежелание идти на компромиссы и сильная неприязнь к бывшей жене, представляет собой еще большую угрозу для свадьбы.

    Мировая премьера:23 января 2013

    • Качество: HDRip
    • Формат: AVI
    • Видео кодек: XviD
    • Аудио кодек:AC3
    • Видео: XviD, 720x400 (16:9), 1837 kbps, 23,976 fps, 0,266 bpp
    • Аудио: AC3 / 5.1 / 48 kHz / 384 kbps / 16 bit


    Код:

    General
    Complete name                            : D:ТорентыA.C.O.D.2013.D.HDRip.1400Mb.avi
    Format                                   : AVI
    Format/Info                              : Audio Video Interleave
    File size                                : 1.37 GiB
    Duration                                 : 1h 27mn
    Overall bit rate                         : 2 231 Kbps
    Writing application                      : VirtualDubMod 1.5.10.2 (build 2540/release)
    Writing library                          : VirtualDubMod build 2540/release

    Video
    ID                                       : 0
    Format                                   : MPEG-4 Visual
    Format profile                           : Advanced Simple@L5
    Format settings, BVOP                    : 2
    Format settings, QPel                    : No
    Format settings, GMC                     : No warppoints
    Format settings, Matrix                  : Custom
    Codec ID                                 : XVID
    Codec ID/Hint                            : XviD
    Duration                                 : 1h 27mn
    Bit rate                                 : 1 838 Kbps
    Width                                    : 720 pixels
    Height                                   : 400 pixels
    Display aspect ratio                     : 16:9
    Frame rate                               : 23.976 fps
    Color space                              : YUV
    Chroma subsampling                       : 4:2:0
    Bit depth                                : 8 bits
    Scan type                                : Progressive
    Compression mode                         : Lossy
    Bits/(Pixel*Frame)                       : 0.266
    Stream size                              : 1.13 GiB (82%)
    Writing library                          : XviD 1.2.1 (UTC 2008-12-04)

    Audio
    ID                                       : 1
    Format                                   : AC-3
    Format/Info                              : Audio Coding 3
    Mode extension                           : CM (complete main)
    Codec ID                                 : 2000
    Duration                                 : 1h 27mn
    Bit rate mode                            : Constant
    Bit rate                                 : 384 Kbps
    Channel(s)                               : 6 channels
    Channel positions                        : Front: L C R, Side: L R, LFE
    Sampling rate                            : 48.0 KHz
    Bit depth                                : 16 bits
    Compression mode                         : Lossy
    Stream size                              : 241 MiB (17%)
    Alignment                                : Split accross interleaves
    Interleave, duration                     : 42 ms (1.00 video frame)
    Interleave, preload duration             : 500 ms

    Скриншоты:

    Трейлеры к фильмам [2014]
    © Оформление by Raven pb.wtf



  • Скачать Взрослые дети развода через торрент http://i2.imageban.ru/out/2014/03/25/94eb86b5b13b167039d2064050f34bbe.jpg Скачать фильм Взрослые дети развода через торрент бесплантно в хорошем качестве Описание:Главный герой на протяжении 20 лет разрывается между разведенными родителями. Ситуация еще более осложняется, когда его брат ... 9.9 10 35
    Info! Серебряная раздача, засчитывается только 50% скачанного.
    Торрент: Зарегистрирован [2014-03-25 15:08] · скачан: 1 362 раз
    Статус: √ проверено
    Размер: 1.37 GB
    Как cкачать? Как скачать Взрослые дети развода через торрент | UTorrent

    28-11-2019 20:33  

    Отключить всю рекламу на сайте

      Дорогой пользователь! Огромная просьба, поблагодарите релизера, оцените раздачу и оставьте свои комментарий, если Вы скачали Взрослые дети развода через торрент бесплатно! Внесите свою лепту в развитие PiratBit!
      Комментировать посты могут только пользователи прошедшие не сложную регистрацию
      Показать сообщения:    

      Взрослые дети развода через торрент
      Скачать бесплатно Взрослые дети развода
      Взрослые дети развода скачать торрент
      Взрослые дети развода смотреть онлайн
      Cкачать фильм Взрослые дети развода бесплатно
      Взрослые дети развода скачать торрент в хорошем качестве
      Взрослые дети развода смотреть онлайн бесплатно в хорошем качестве


      Вы не можете начинать темы
      Вы не можете отвечать на сообщения
      Вы не можете редактировать свои сообщения
      Вы не можете удалять свои сообщения
      Вы не можете голосовать в опросах
      Вы не можете прикреплять файлы к сообщениям
      Вы можете скачивать файлы