2 сезон

iTunes

MVO

1

2 сезон

iTunes

iTunes

1 сезон

RePack

30

Новинка

ВАЖНО

ИГРА 18+

pack

RePack

MK11
pack

Легкие деньги

RePack

jed

RePack

fifa19

RePack

RDR2

RePack

NEED FOR SPEED™ PAYBACK

4 сезон

9 сезон

Бесстыжие 9 сезон

Все сериалы

все сериалы на PB.wtf

RePack

FAR CRY 5

Anonymous, добрый вечер, мы не успеваем собрать деньги на оплату серверов за декабрь и январь, помогите нам пожалуйста в это трудное время. В качестве благодарности мы отключим Вам всю рекламу на сайте (укажите свой ник в строку Ваше имя)!

×
  
Magnet ссылка

Уцелевший / Lone Survivor (Питер Берг) [2013 г., боевик, триллер, драма, военный, HDRip, Дубляж, Лицензия] pb.wtf

Уцелевший через торрент pb.wtf

Размер: 1.37 GB | Добавлен: 6 лет 9 мес. назад | Торрент скачан:709 раз
Скачать  

21-03-2014 23:17 Уцелевший Скачать торрент  

Уцелевший / Lone Survivor
«Live to Tell the Story»
Год выпуска: 2013
Страна: США / Emmett/Furla Films, Envision Entertainment, Film 44
Жанр: боевик, триллер, драма, военный
Продолжительность: 02:01:14
Перевод: Дублированный [Лицензия]
Субтитры: нет
В ролях:
Марк Уолберг, Тейлор Китч, Эмиль Хирш, Бен Фостер, Юсуф Азами, Али Сулиман, Эрик Бана, Александр Людвиг, Рич Тинг, Дэн Билзериан



Режиссёр:
Питер Берг

Описание:Афганистан, 2005 год. Команда американских спецназовцев получает задание обезвредить известного лидера талибов Ахмада Шаха. Попав в ловушку, солдаты принимают неравный кровопролитный бой, и все они погибают героями. Все, кроме одного. Для уцелевшего Маркуса Латтрела бой только начинается: он любой ценой должен выжить и пробраться к «своим». Когда почти всё потеряно, ему решается помочь Гулаб — мирный человек, ненавидящий войну.

Качество: HDRip
Формат: AVI
Видео кодек: XviD
Аудио кодек: AC3
Видео: 720x304 (2.37:1), 23.976 fps, XviD build 50 ~1157 kbps avg, 0.22 bit/pixel
Аудио: 48 kHz, AC3 Dolby Digital, 3/2 (L,C,R,l,r) + LFE ch, ~448 kbps


Общее
Полное имя : D:TorrentsUtselevshiy.2013.D.HDRip.1400Mb.avi
Формат : AVI
Формат/Информация : Audio Video Interleave
Размер файла : 1,37 Гбайт
Продолжительность : 2 ч. 1 м.
Общий поток : 1615 Кбит/сек
Программа кодирования : VirtualDubMod 1.5.10.2 (build 2540/release)
Библиотека кодирования : VirtualDubMod build 2540/release

Видео
Идентификатор : 0
Формат : MPEG-4 Visual
Профиль формата : Advanced Simple@L5
Параметр BVOP формата : 2
Параметр QPel формата : Нет
Параметр GMC формата : Без точки перехода
Параметр матрицы формата : Default (MPEG)
Идентификатор кодека : XVID
Идентификатор кодека/Подсказка : XviD
Продолжительность : 2 ч. 1 м.
Битрейт : 1158 Кбит/сек
Ширина : 720 пикселей
Высота : 304 пикселя
Соотношение сторон : 2,35:1
Частота кадров : 23,976 кадра/сек
Цветовое пространство : YUV
Субдискретизация насыщенности : 4:2:0
Битовая глубина : 8 бит
Тип развёртки : Прогрессивная
Метод сжатия : С потерями
Бит/(Пиксели*Кадры) : 0.221
Размер потока : 1004 Мбайт (72%)
Библиотека кодирования : XviD 1.2.1 (UTC 2008-12-04)

Аудио
Идентификатор : 1
Формат : AC-3
Формат/Информация : Audio Coding 3
Расширение режима : CM (complete main)
Параметр Endianness формата : Big
Идентификатор кодека : 2000
Продолжительность : 2 ч. 1 м.
Вид битрейта : Постоянный
Битрейт : 448 Кбит/сек
Каналы : 6 каналов
Расположение каналов : Front: L C R, Side: L R, LFE
Частота : 48,0 КГц
Битовая глубина : 16 бит
Метод сжатия : С потерями
Размер потока : 388 Мбайт (28%)
Выравнивание : Разделение по промежуткам
Продолжительность промежутка : 42 мс. (1,00 видеокадр)
Время предзагрузки промежутка : 500 мс.[/code]
[/url]
[/url]
[/url]
[/url]
[/url]
[/url]
[/url]
pb.wtf



Скачать Уцелевший через торрент http://3.firepic.org/3/images/2014-03/22/20ufnq619h2g.png Скачать фильм Уцелевший через торрент бесплантно в хорошем качестве Описание:Афганистан, 2005 год. Команда американских спецназовцев получает задание обезвредить известного лидера талибов Ахмада Шаха. Попав ... 9.9 10 33
Торрент: Зарегистрирован [2014-03-25 21:09] · скачан: 709 раз
Статус: √ проверено
Размер: 1.37 GB
Как cкачать? Как скачать Уцелевший через торрент | UTorrent

% Раздел Тема Автор DL S | L
Ultra HD (UHD: 2K, 4K, 8K) — видео сверхвысокой чёткости [ 60.92 GB ] Уцелевший / Lone Survivor [2013 военный UHD BDRemux 2160p] DUB [] + 2xAVO sheker187 Скачать
1 | 0
Ultra HD (UHD: 2K, 4K, 8K) — видео сверхвысокой чёткости [ 55.82 GB ] Уцелевший / Lone Survivor [2013 военный UHDWEBRip 2160p] - [] sheker187 Скачать
2 | 0
Фильмы (HD 720p, 1080p) (48-60 fps) [ 5.58 GB ] Уцелевший / Lone Survivor [2013 Военный BDRip 720p 60fps ] mimok Скачать
1 | 0
Фильмы [HD 720p, 1080p] (Хороший звук DUB, MVO) [ 3.85 GB ] Уцелевший / Lone Survivor [2013 Военный BDRip 720p] от R.G. PiratFilms XLASER Скачать
1 | 0
Фильмы 2013 [DVDrip, WEB-DLRip, HDrip] [ 1.37 GB ] Уцелевший / Lone Survivor [2013 военный WEB-DLRip /] MihailHD Скачать
1 | 0
Фильмы 2013 [DVDrip, WEB-DLRip, HDrip] [ 2.18 GB ] Уцелевший / Lone Survivor [2013 Военный BDRip-AVC] DUB potroks Скачать
2 | 0
Фильмы 2013 [DVDrip, WEB-DLRip, HDrip] [ 1.47 GB ] Уцелевший / Lone Survivor [2013 военный BDRip-AVC] Dub sokol_ok Скачать
2 | 0


Последний раз редактировалось: Cталин (2014-03-22 07:30), всего редактировалось 6 раз(а)

28-11-2019 20:33  

Отключить всю рекламу на сайте

22-03-2014 15:33 Уцелевший Скачать торрент  

Спасибо, удачи.pb.wtf



22-03-2014 20:16 Уцелевший Скачать торрент  

Серебра Вам сударь.pb.wtf



24-03-2014 15:35 Уцелевший Скачать торрент  

Фильм Сильный.10 из 10pb.wtf



    Дорогой пользователь! Огромная просьба, поблагодарите релизера, оцените раздачу и оставьте свои комментарий, если Вы скачали Уцелевший через торрент бесплатно! Внесите свою лепту в развитие PiratBit!
    Комментировать посты могут только пользователи прошедшие не сложную регистрацию
    Показать сообщения:    

    Уцелевший через торрент
    Скачать бесплатно Уцелевший
    Уцелевший скачать торрент
    Уцелевший смотреть онлайн
    Cкачать фильм Уцелевший бесплатно
    Уцелевший скачать торрент в хорошем качестве
    Уцелевший смотреть онлайн бесплатно в хорошем качестве


    Вы не можете начинать темы
    Вы не можете отвечать на сообщения
    Вы не можете редактировать свои сообщения
    Вы не можете удалять свои сообщения
    Вы не можете голосовать в опросах
    Вы не можете прикреплять файлы к сообщениям
    Вы можете скачивать файлы